Welcome Guest ( Log In | Register )

> И неформату есть предел.

Рэп/хип-хоп/шансон/поп удаляются. Для них есть свои порталы.

> Swans - Deliquescence [live] (2017), Experimental Rock (D29)
post Nov 10 2017, 14:59:50
Post #1

Попсовик от брутала
**************
Group: Металариец
Posts: 6,216
Releases: 59
From: Минск
On Forums: 9 years 9 months
Thanks: 5063 time(s)
Belarus


(IMG:http://metalarea.org/images/audiocovers/2017_Nov/acov_tid297571_thumb.jpg)

*Artist: Swans
*Album: Deliquescence [live]
*Year: 2017
*Genre: Experimental Rock
*Country: United States (IMG:http://metalarea.org/forum/style_images/flags/United%20States.png)
*Format: mp3@CBR320kbps
*Size: 355MB

Tracklist:
01. The Knot 45:37
02. Screen Shot 7:51
03. Cloud of Forgetting 16:01
04. Deliquescing 10:09
05. Cloud of Unknowing 29:22
06. The Man Who Refused To Be Unhappy 9:44
07. The Glowing Man 36:20
******************************
Total playing time: 2:35:04

Extended info
Contains three tracks that have previously only been played live (1, 4, 6)


Technical info
(IMG:http://metalarea.org/images/spectrogram/2017_Nov/f8991af050639211bb50b1e4f8d46074.png)
Input File: 02 Screen Shot.mp3
Channels : 2
Sample Rate : 44100
Precision : 16-bit
Duration : 00:07:51.06 = 20773790 samples = 35329.6 CDDA sectors
File Size : 18.9M
Bit Rate : 322k
Sample Encoding: MPEG audio (layer I, II or III)
Comments :
Title=Screen Shot
Artist=Swans
Album=Deliquescence
Tracknumber=2/7
Year=2017
Genre=Experimental Rock
Discnumber=1/2



Register


Go to the top of the page
  Insert nick Quick quote
+Quote Post
 
Start new topic
Replies (1 - 1)
post Dec 16 2017, 12:23:11
Post #2

Group: Подсевший
Posts: 10
Releases: 0
On Forums: 11 years 3 months
Thanks: 0 time(s)
Unknown


Thank you.
Go to the top of the page
  Insert nick Quick quote
+Quote Post

Reply to this topicStart new topic
1 User(s) are reading this topic (1 Guests and 0 Anonymous Users)
0 Members:

 



- Lo-Fi Version Support form
Copyrights and abuse reports form
Time is now: 19th September 2018 - 12:07:45