Welcome Guest ( Log In | Register )

> И неформату есть предел.

Рэп/хип-хоп/шансон/поп удаляются. Для них есть свои порталы.

> Deviate Damaen - Retro-Marsch Kiss (2015), Gothic Metal/Experimental/Theatrical
post Nov 10 2017, 15:30:04
Post #1

Group: Подсевший
Posts: 22
Releases: 6
From: Italy
On Forums: 1 year 5 months
Thanks: 62 time(s)
Italy


(IMG:https://metalarea.org/images/audiocovers/nocover.gif)

*Artist: Deviate Damaen
*Album: Retro-Marsch Kiss
*Year: 2015
*Genre: Gothic Metal/Experimental/Theatrical
*Country: Italy (IMG:https://metalarea.org/forum/style_images/flags/Italy.png)
*Format: mp3@CBR320kbps
*Size: 282MB

Tracklist:
1. Bacio Di Ritorno
2. Descendi, Frigus!
3. L'Antimissionar
4. Centone "Ad Guerram" - Lyturgika'ss III
5. Ombre Senza Tombe (Globulo Primo)
6. Narcissus Race (Bunker Remix) - Centone "Ad Speculum"
7. Sepolcreto E Nobiltà, Solfeggiar D'Identità! - Quell'Eterna Eco Di Gloria Che Noi Saremo (Globulo Secundo)
8. Così Parlo Costantino XI (Globulo Tertio)
9. Basta Non Basta (V Movimenti: Con Le Budella Dei Buoni Ci Si Strozzano I Cattivi, Basta Non Somiglianza, Discordia In Marcia, Orgiasticum Metallum Nostrum, Olio Alle Grondaie)
10. La Preghiera Di Dante (Globulo Quarto)
11. Gothiko, Non Hai Capito Un Cazzo Se... - Centone "Ad Coronam"
12. Il Valzer Del Retrogrado
13. Elektr'n'Culo Pasquinata - Centone "Ad Patriam Et Eius Finium Sacertatem"
14. La Fine Che Non C'è
15. Schiuma Su Sto Scroto, Progressista! (Live)
16. Rintocchi D'Occaso
******************************
Total playing time: 1:32:30



Technical info
(IMG:https://metalarea.org/images/spectrogram/2017_Nov/0d3a6c0ff17b6a8d6a278649c9c729bf.png)
Input File: 2 - DESCENDI, FRIGUS!.mp3
Channels : 2
Sample Rate : 44100
Precision : 16-bit
Duration : 00:02:41.57 = 7125105 samples = 12117.5 CDDA sectors
File Size : 6.46M
Bit Rate : 320k
Sample Encoding: MPEG audio (layer I, II or III)
Comments :
Title=DESCENDI, FRIGUS
Artist=Deviate Damaen
Album=Retro-Marsch Kiss
Tracknumber=2



Register


Go to the top of the page
  Insert nick Quick quote
+Quote Post
 
Start new topic
Replies (1 - 1)
post Nov 10 2017, 18:18:34
Post #2

Group: Подсевший
Posts: 34
Releases: 0
On Forums: 1 year 4 months
Thanks: 6 time(s)
Unknown


парни, перезалейте пож. на какой нибудь другой файлообменник!!!
Go to the top of the page
  Insert nick Quick quote
+Quote Post

Reply to this topicStart new topic
1 User(s) are reading this topic (1 Guests and 0 Anonymous Users)
0 Members:

 



- Lo-Fi Version Support form
Copyrights and abuse reports form
Time is now: 19th September 2018 - 11:36:15