Welcome Guest ( Log In | Register )

 
Reply to this topicStart new topic
> Gabriel Brooks-Lopez - Phase [ep] (2017), Instrumental/Progressive Metal/Fusion
post Nov 11 2017, 13:44:11
Post #1

Serial Uploader
Group Icon
Group: V.I.P
Posts: 32,720
Releases: 31018
From: Lithuania
On Forums: 10 years 1 week
Thanks: 355644 time(s)
Lithuania


(IMG:https://metalarea.org/images/audiocovers/2017_Nov/acov_tid297627_thumb.jpg)

*Artist: Gabriel Brooks-Lopez
*Album: Phase [ep]
*Year: 2017
*Genre: Instrumental/Progressive Metal/Fusion
*Country: United States (IMG:https://metalarea.org/forum/style_images/flags/United%20States.png)
*Format: mp3@CBR320kbps
*Size: 49MB

Tracklist:
01. Ring Of Neptune 06:27
02. Granite 07:42
03. Strange Matter 07:29
******************************
Total playing time: 21:38




Technical info
(IMG:https://metalarea.org/images/spectrogram/2017_Nov/c68c38c2735285a059c5bf6e0863e576.png)
Input File: 02. Granite.mp3
Channels : 2
Sample Rate : 44100
Precision : 16-bit
Duration : 00:07:42.23 = 20384211 samples = 34667 CDDA sectors
File Size : 18.6M
Bit Rate : 321k
Sample Encoding: MPEG audio (layer I, II or III)
Comments :
Title=Granite
Artist=Gabriel Brooks-Lopez
Album=Phase
Tracknumber=2
Year=2017



Register


Thanks:
Go to the top of the page
  Insert nick Quick quote
+Quote Post

Reply to this topicStart new topic
1 User(s) are reading this topic (1 Guests and 0 Anonymous Users)
0 Members:

 



- Lo-Fi Version Support form
Copyrights and abuse reports form
Time is now: 20th June 2018 - 05:01:24