Welcome Guest ( Log In | Register )

> И неформату есть предел.

Рэп/хип-хоп/шансон/поп удаляются. Для них есть свои порталы.

 
Reply to this topicStart new topic
> Sanguis Nigratum - Sanguis Nigratum [demo] (2013), Dark Ambient
post Nov 11 2017, 20:51:17
Post #1

Правь статус, ####!111
**************
Group: Металариец
Posts: 3,298
Releases: 643
From: Brazil
On Forums: 6 years 7 months
Thanks: 25542 time(s)
Brazil


(IMG:https://metalarea.org/images/audiocovers/2017_Nov/acov_tid297642_thumb.jpg)

*Artist: Sanguis Nigratum
*Album: Sanguis Nigratum [demo]
*Year: 2013
*Genre: Dark Ambient
*Country: Portugal (IMG:https://metalarea.org/forum/style_images/flags/Portugal.png)
*Format: mp3@CBR320kbps
*Size: 46MB

Tracklist:
1. Procissão de Demónios
2. Violando o Céu com Maldições Negras
3. Violando a Luz do Dia com a Sede de Sa(ngua)thanas
******************************
Total playing time: 19:05

Extended info
Black Gangrene Productions


Technical info
(IMG:https://metalarea.org/images/spectrogram/2017_Nov/b945e73b5c4cbe39c95e557a25a3496a.png)
Input File: 01 Procissão de Demónios.mp3
Channels : 2
Sample Rate : 44100
Precision : 16-bit
Duration : 00:06:01.31 = 15933771 samples = 27098.2 CDDA sectors
File Size : 14.9M
Bit Rate : 330k
Sample Encoding: MPEG audio (layer I, II or III)
Comments :
Title=ProcissГЈo de DemГіnios
Artist=Sanguis Nigratum
Album=Sanguis Nigratum
Tracknumber=1
Year=2013
Genre=Ambient



Register


Go to the top of the page
  Insert nick Quick quote
+Quote Post

Reply to this topicStart new topic
1 User(s) are reading this topic (1 Guests and 0 Anonymous Users)
0 Members:

 



- Lo-Fi Version Support form
Copyrights and abuse reports form
Time is now: 19th September 2018 - 10:49:10