Welcome Guest ( Log In | Register )

> И неформату есть предел.

Рэп/хип-хоп/шансон/поп удаляются. Для них есть свои порталы.

> Sanguis Nigratum - O Diabo [demo] (2014), Dark Ambient
post Nov 11 2017, 21:21:38
Post #1

Правь статус, ####!111
**************
Group: Металариец
Posts: 3,017
Releases: 471
From: Brazil
On Forums: 6 years 3 weeks
Thanks: 20347 time(s)
Brazil


(IMG:https://metalarea.org/images/audiocovers/2017_Nov/acov_tid297644_thumb.jpg)

*Artist: Sanguis Nigratum
*Album: O Diabo [demo]
*Year: 2014
*Genre: Dark Ambient
*Country: Portugal (IMG:https://metalarea.org/forum/style_images/flags/Portugal.png)
*Format: mp3@CBR320kbps
*Size: 49MB

Tracklist:
1. Untitled I
2. Untitled II
3. Untitled III
4. Untitled IV
******************************
Total playing time: 20:19

Technical info
(IMG:https://metalarea.org/images/spectrogram/2017_Nov/eb0dac9432fc5c1afd94b1313ba67037.png)
Input File: 04 Untitled.mp3
Channels : 2
Sample Rate : 44100
Precision : 16-bit
Duration : 00:07:32.15 = 19939639 samples = 33911 CDDA sectors
File Size : 18.7M
Bit Rate : 330k
Sample Encoding: MPEG audio (layer I, II or III)
Comments :
Title=Untitled IV
Artist=Sanguis Nigratum
Album=O Diabo
Tracknumber=4
Year=2014
Genre=Ambient



Register


Вернуться к началу страницы
  Insert nick Quick quote
+Цитировать сообщение
 
Создать новую тему
Replies (1 - 1)
post Nov 12 2017, 12:01:43
Post #2

Satan bless you!
**************
Group: Металариец
Posts: 2,943
Releases: 63
From: Москва
On Forums: 9 years 7 months
Thanks: 2611 time(s)
Russian Federation


Сатаник амбиент...напевы на тему колец вы здесь не найдете)
Вернуться к началу страницы
  Insert nick Quick quote
+Цитировать сообщение

ОтветитьСоздать новую тему
1 User(s) are reading this topic (1 Guests and 0 Anonymous Users)
0 Members:

 



- Lo-Fi Version Support form
Copyrights and abuse reports form
Time is now: 23rd February 2018 - 03:56:44