Welcome Guest ( Log In | Register )

> И неформату есть предел.

Рэп/хип-хоп/шансон/поп удаляются. Для них есть свои порталы.

> Parade Of Souls - De Profundis (1996), Gothic Rock
post Nov 12 2017, 10:35:53
Post #1

Quaerite Lux in Tenebris
**********
Group: Металариец
Posts: 1,443
Releases: 16
From: Micsődőllő
On Forums: 7 years 11 months
Thanks: 2258 time(s)
Unknown


(IMG:https://metalarea.org/images/audiocovers/2017_Nov/acov_tid297684_thumb.jpg)

*Artist: Parade Of Souls
*Album: De Profundis
*Year: 1996
*Genre: Gothic Rock
*Country: Finland (IMG:https://metalarea.org/forum/style_images/flags/Finland.png)
*Format: mp3@CBR320kbps
*Size: 132MB

Tracklist:
01. Ostracized 07:44
02. Barriers 5:38
03. The Time Is Out Of Joint 5:24
04. Nevrosia 03:42
05. Loss 05:58
06. Tranquil 06:29
07. Rest 07:21
08. Second Skin 6:44
09. Withdrawn 6:12
******************************
Total playing time: 55:07

Technical info
(IMG:https://metalarea.org/images/spectrogram/2017_Nov/e3acbe61f31ee5fb707a82e9fa6b485b.png)
Input File: 01. Ostracized.mp3
Channels : 2
Sample Rate : 44100
Precision : 16-bit
Duration : 00:07:43.31 = 20431971 samples = 34748.2 CDDA sectors
File Size : 18.5M
Bit Rate : 320k
Sample Encoding: MPEG audio (layer I, II or III)
Comments :
Title=Ostracized
Artist=Parade of Souls
Album=De Profundis
Tracknumber=01
Year=1995
Genre=91
Discnumber=1/1



Register


Go to the top of the page
  Insert nick Quick quote
+Quote Post
 
Start new topic
Replies (1 - 2)
post Nov 13 2017, 15:02:14
Post #2

Quaerite Lux in Tenebris
**********
Group: Металариец
Posts: 1,443
Releases: 16
From: Micsődőllő
On Forums: 7 years 11 months
Thanks: 2258 time(s)
Unknown


Зеркало:
Register


Go to the top of the page
  Insert nick Quick quote
+Quote Post
post Nov 28 2017, 12:59:02
Post #3

Маньяк
**********
Group: Металариец
Posts: 1,481
Releases: 23
From: Spain
On Forums: 10 years 9 months
Thanks: 1117 time(s)
Spain


QUOTE
Go to the top of the page
  Insert nick Quick quote
+Quote Post

Reply to this topicStart new topic
1 User(s) are reading this topic (1 Guests and 0 Anonymous Users)
0 Members:

 



- Lo-Fi Version Support form
Copyrights and abuse reports form
Time is now: 20th June 2018 - 05:06:45