Welcome Guest ( Log In | Register )

 
Reply to this topicStart new topic
> Abused Majesty - Crusade For Immortality [demo] (2006), Symphonic Black Metal
post Nov 12 2017, 17:19:43
Post #1

Правь статус, ####!111
Group Icon
Group: S-moderation team
Posts: 21,963
Releases: 1443
On Forums: 10 years 7 months
Thanks: 102775 time(s)
Unknown


(IMG:https://metalarea.org/images/audiocovers/2017_Nov/acov_tid297692_thumb.jpg)

*Artist: Abused Majesty
*Album: Crusade For Immortality [demo]
*Year: 2006
*Genre: Symphonic Black Metal
*Country: Poland (IMG:https://metalarea.org/forum/style_images/flags/Poland.png)
*Format: mp3@CBR320kbps
*Size: 42MB

Tracklist:
1. Prologue - The Majesty of the Sacred Mountain 01:35
2. Soul of the Beast 03:16
3. Immortality Crusade 04:40
4. Viperion Ardant 03:51
5. The Night of the Triumphator (Satyricon cover) 05:25
******************************
Total playing time: 18:47

Technical info
(IMG:https://metalarea.org/images/spectrogram/2017_Nov/11476e66a536d3eac360259509e8575c.png)
Input File: 02-abused_majesty-soul_of_the_beast.mp3
Channels : 2
Sample Rate : 44100
Precision : 16-bit
Duration : 00:03:16.65 = 8672045 samples = 14748.4 CDDA sectors
File Size : 7.87M
Bit Rate : 320k
Sample Encoding: MPEG audio (layer I, II or III)
Comments :
Title=Soul of the Beast
Artist=Abused Majesty
Album=Crusade For Immortality CD
Tracknumber=2/5
Year=2006
Genre=Black Metal



Register


Go to the top of the page
  Insert nick Quick quote
+Quote Post

Reply to this topicStart new topic
1 User(s) are reading this topic (1 Guests and 0 Anonymous Users)
0 Members:

 



- Lo-Fi Version Support form
Copyrights and abuse reports form
Time is now: 27th September 2021 - 05:31:58