Welcome Guest ( Log In | Register )

> Forum rules / Правила раздела

Here go releases which can't go to New releases forums due lack of information, stolen links or incorrect data and just founded in other sites links with minimum info. Reissue of this releases through Add release form with added/corrected data, info and own links highly welcomed.

Сюда уходят релизы, не пропущенные в основные релизные форумы по причинам отсутствия, недостаточности или неверности/некорректности сопровождающей информации, содержащие ссылки, указывающие на файлы, залитые не автором темы, а так же просто найденные где-то ссылки с минимумом информации. Переоформление тем отсюда через форму Добавления релиза с перезаливкой ссылок крайне приветствуется.

> Mother Of Millions - Sigma (2017), Progressive Metal/Rock
post Nov 13 2017, 11:47:39
Post #1

дууумер!
**************
Group: Металариец
Posts: 2,712
Releases: 4
From: SPb
On Forums: 13 years 3 days
Thanks: 865 time(s)
Russian Federation


(IMG:http://metalarea.org/images/audiocovers/2017_Nov/acov_tid297731_thumb.jpg)

*Artist: Mother Of Millions
*Album: Sigma
*Year: 2017
*Genre: Progressive Metal/Rock
*Country: Greece (IMG:http://metalarea.org/forum/style_images/flags/Greece.png)
*Format: mp3@CBR320kbps
*Size: 88MB

Tracklist:
01. Emerge 03:53
02. Shine 03:57
03. Silence 08:13
04. Rome 04:57
05. Their Passage, The Light 03:56
06. Collision 04:47
07. The Rapture 02:02
08. Spiral 06:46
09. Sigma 03:04
******************************
Total playing time: 41:35

(IMG:http://metalarea.org/images/youtube.png)

Extended info
Довольно интересные и мелодичные ребята, активно использующие пианино и этнические инструменты.

Line-Up:
George Prokopiou - Vocals
Kostas Konstantinidis - Guitars
Panos Priftis - Bass
Makis Tsamkosoglou - Keyboards
George Boukaouris - Drums, Percussion


Technical info
(IMG:http://metalarea.org/images/spectrogram/2017_Nov/97da6fe45f790761fafb8af1b7be7096.png)
Input File: 09. Sigma.mp3
Channels : 2
Sample Rate : 44100
Precision : 16-bit
Duration : 00:03:04.42 = 8132834 samples = 13831.4 CDDA sectors
File Size : 7.41M
Bit Rate : 322k
Sample Encoding: MPEG audio (layer I, II or III)
Comments :
Title=Sigma
Artist=Mother Of Millions
Album=Sigma
Tracknumber=9
Year=2017
Genre=Metal



Register
Go to the top of the page
  Insert nick Quick quote
+Quote Post
 
Start new topic
Replies (1 - 3)
post Nov 16 2017, 16:18:18
Post #2

дууумер!
**************
Group: Металариец
Posts: 2,712
Releases: 4
From: SPb
On Forums: 13 years 3 days
Thanks: 865 time(s)
Russian Federation


Со стилем, конечно, косяк первоисточника. А альбом очень крутой. Прямо душевный как Textures.
Go to the top of the page
  Insert nick Quick quote
+Quote Post
post Nov 16 2017, 16:43:04
Post #3

21st Century Schizoid Man
**************
Group: Металариец
Posts: 6,333
Releases: 79
From: Moscow
On Forums: 11 years 10 months
Thanks: 5137 time(s)
Russian Federation


Ага, помню их 2014-й. Надо послушать, в общем.

А чо релиз не там, где нужно?

Тут прямо Лепрус.


Thanks:
(1) boby9052,
Go to the top of the page
  Insert nick Quick quote
+Quote Post
post Nov 19 2017, 09:14:59
Post #4

дууумер!
**************
Group: Металариец
Posts: 2,712
Releases: 4
From: SPb
On Forums: 13 years 3 days
Thanks: 865 time(s)
Russian Federation


ЦИТАТА(Yarri @ Nov 16 2017, 18:43:04) *
Ага, помню их 2014-й. Надо послушать, в общем.

А чо релиз не там, где нужно?

Тут прямо Лепрус.


треки Spiral и Silence - прямо очень круто и свежо.
я архив неправильно назвал вроде ) но мне как-то пох! заливал сам, вирусов нет )


Thanks:
(1) boby9052,
Go to the top of the page
  Insert nick Quick quote
+Quote Post

Reply to this topicStart new topic
2 User(s) are reading this topic (2 Guests and 0 Anonymous Users)
0 Members:

 



- Lo-Fi Version Support form
Copyrights and abuse reports form
Time is now: 29th March 2020 - 01:44:56