Welcome Guest ( Log In | Register )

 
Reply to this topicStart new topic
> Aura Ignis - Prisioneros Del Dolor (2016), Heavy/Power Metal
post Nov 13 2017, 13:51:04
Post #1

Serial Uploader
Group Icon
Group: V.I.P
Posts: 32,724
Releases: 31022
From: Lithuania
On Forums: 10 years 1 week
Thanks: 355658 time(s)
Lithuania


(IMG:http://metalarea.org/images/audiocovers/2017_Nov/acov_tid297739_thumb.jpg)

*Artist: Aura Ignis
*Album: Prisioneros Del Dolor
*Year: 2016
*Genre: Heavy/Power Metal
*Country: Colombia (IMG:http://metalarea.org/forum/style_images/flags/Colombia.png)
*Format: mp3@CBR320kbps
*Size: 127MB

Tracklist:
01. Intro: Hacia El Averno
02. El Juramento
03. Perdido
04. Prisioneros Del Dolor
05. Sin Salida
06. Una Luz En La Oscuridad
07. Sin Miedo A Morir
08. Shibboleth (Grito De Guerra)
09. Tu Alma En Juego
10. Tu Libertad
11. Shibboleth (Grito De Guerra) (Guttural Version) (Bonus Track)
******************************
Total playing time: 55:31




Technical info
(IMG:http://metalarea.org/images/spectrogram/2017_Nov/b3f5b6e7a454a3ad593f89fcf131eb9f.png)
Input File: 02. El Juramento.mp3
Channels : 2
Sample Rate : 44100
Precision : 16-bit
Duration : 00:05:28.79 = 14499463 samples = 24659 CDDA sectors
File Size : 13.3M
Bit Rate : 322k
Sample Encoding: MPEG audio (layer I, II or III)
Comments :
Title=El Juramento
Artist=Aura Ignis
Album=Prisioneros Del Dolor
Tracknumber=2/11
Year=2016



Register


Thanks:
Go to the top of the page
  Insert nick Quick quote
+Quote Post

Reply to this topicStart new topic
1 User(s) are reading this topic (1 Guests and 0 Anonymous Users)
0 Members:

 



- Lo-Fi Version Support form
Copyrights and abuse reports form
Time is now: 20th June 2018 - 20:02:43