Welcome Guest ( Log In | Register )

> Green Hell - Túlzások Nélkül (2015), Thrash Metal
post Nov 13 2017, 14:26:37
Post #1

Serial Uploader
Group Icon
Group: V.I.P
Posts: 31,462
Releases: 29796
From: Lithuania
On Forums: 9 years 8 months
Thanks: 342062 time(s)
Lithuania


(IMG:https://metalarea.org/images/audiocovers/2017_Nov/acov_tid297741_thumb.jpg)

*Artist: Green Hell
*Album: Túlzások Nélkül
*Year: 2015
*Genre: Thrash Metal
*Country: Hungary (IMG:https://metalarea.org/forum/style_images/flags/Hungary.png)
*Format: mp3@CBR320kbps
*Size: 86MB

Tracklist:
01. Intro
02. Halott Lélek
03. Itt A Vége
04. Zöld Pokol
05. Sír A Föld
06. Hív A Sötét Éj
07. Sötét Árnyak (Instrumental)
08. Nincs Mese
09. Tömeggyílkos
10. A Valóvilág (Amiben Élünk)
******************************
Total playing time: 37:02


(IMG:https://metalarea.org/images/youtube.png)

Technical info
(IMG:https://metalarea.org/images/spectrogram/2017_Nov/039e04e43a3877f463f9c6f85b4b7879.png)
Input File: 02. Halott l?lek.mp3
Channels : 2
Sample Rate : 44100
Precision : 16-bit
Duration : 00:03:05.85 = 8196073 samples = 13938.9 CDDA sectors
File Size : 7.58M
Bit Rate : 326k
Sample Encoding: MPEG audio (layer I, II or III)
Comments :
Title=Halott lГ©lek
Artist=Green Hell
Album=TГєlzГЎsok nГ©lkГјl
Tracknumber=2
Year=2015
Genre=Thrash Metal



Register


Вернуться к началу страницы
  Insert nick Quick quote
+Цитировать сообщение
 
Создать новую тему
Replies (1 - 1)
post Nov 14 2017, 02:56:39
Post #2

\m/
Group Icon
Group: S-moderation team
Posts: 7,340
Releases: 19
From: Петропавловск-Камчатский
On Forums: 8 years 8 months
Thanks: 6493 time(s)
Russian Federation


С привкусом дэзни, но вокал и родная речь всё портит (IMG:style_emoticons/default/smile2.gif)
Вернуться к началу страницы
  Insert nick Quick quote
+Цитировать сообщение

ОтветитьСоздать новую тему
1 User(s) are reading this topic (1 Guests and 0 Anonymous Users)
0 Members:

 



- Lo-Fi Version Support form
Copyrights and abuse reports form
Time is now: 23rd February 2018 - 03:52:57