Welcome Guest ( Log In | Register )

 
Reply to this topicStart new topic
> Peasant Hands - Mother Of Failure (2015), Sludge/Death Metal/Hardcore
post Nov 13 2017, 14:59:09
Post #1

Serial Uploader
Group Icon
Group: V.I.P
Posts: 33,390
Releases: 31659
From: Lithuania
On Forums: 10 years 6 months
Thanks: 361702 time(s)
Lithuania


(IMG:https://metalarea.org/images/audiocovers/2017_Nov/acov_tid297745_thumb.jpg)

*Artist: Peasant Hands
*Album: Mother Of Failure
*Year: 2015
*Genre: Sludge/Death Metal/Hardcore
*Country: United States (IMG:https://metalarea.org/forum/style_images/flags/United%20States.png)
*Format: mp3@CBR320kbps
*Size: 86MB

Tracklist:
01. Black Leaves 07:08
02. Woman Of Gomorrah 03:26
03. Time: Devourer Of All Things 07:28
04. Loose Nails 02:40
05. Intra Noir 07:58
06. Of Shadow And Slate 03:46
07. Rust: In Every Vein, Every Pore 04:35
******************************
Total playing time: 37:01




Technical info
(IMG:https://metalarea.org/images/spectrogram/2017_Nov/a02ecd41df3174208912cf13ad50aa68.png)
Input File: 02. Woman of Gomorrah.mp3
Channels : 2
Sample Rate : 44100
Precision : 16-bit
Duration : 00:03:26.71 = 9116043 samples = 15503.5 CDDA sectors
File Size : 8.40M
Bit Rate : 325k
Sample Encoding: MPEG audio (layer I, II or III)
Comments :
Title=Woman of Gomorrah
Artist=Peasant Hands
Album=Mother of Failure
Tracknumber=2/7
Year=2017



Register


Go to the top of the page
  Insert nick Quick quote
+Quote Post

Reply to this topicStart new topic
1 User(s) are reading this topic (1 Guests and 0 Anonymous Users)
0 Members:

 



- Lo-Fi Version Support form
Copyrights and abuse reports form
Time is now: 12th December 2018 - 04:38:01