Welcome Guest ( Log In | Register )

 
Reply to this topicStart new topic
> Mental Mutilation - Demo 2 [demo] (2017), Goregrind
post Nov 13 2017, 15:18:10
Post #1

Serial Uploader
Group Icon
Group: V.I.P
Posts: 33,389
Releases: 31659
From: Lithuania
On Forums: 10 years 6 months
Thanks: 361702 time(s)
Lithuania


(IMG:http://metalarea.org/images/audiocovers/2017_Nov/acov_tid297746_thumb.jpg)

*Artist: Mental Mutilation
*Album: Demo 2 [demo]
*Year: 2017
*Genre: Goregrind
*Country: Canada (IMG:http://metalarea.org/forum/style_images/flags/Canada.png)
*Format: mp3@CBR320kbps
*Size: 15MB

Tracklist:
01. Masticating Tumor Addiction 01:23
02. Carnivorous Infection 00:46
03. Enflamed Puss Filled Growth 00:23
04. Central Auditory Processing Disorder 00:44
05. Grotesque Deformity 00:34
06. Progressive Multifocal Leukeoncephalopathy 01:05
07. Cerebrovascular Deterioration 01:14
******************************
Total playing time: 6:09



Technical info
(IMG:http://metalarea.org/images/spectrogram/2017_Nov/598bfc4f64cb850450d58f89a1d59d68.png)
Input File: 02. CARNIVOROUS INFECTION.mp3
Channels : 2
Sample Rate : 44100
Precision : 16-bit
Duration : 00:00:46.66 = 2057662 samples = 3499.43 CDDA sectors
File Size : 2.01M
Bit Rate : 345k
Sample Encoding: MPEG audio (layer I, II or III)
Comments :
Title=CARNIVOROUS INFECTION
Artist=Mental Mutilation
Album=DEMO 2
Tracknumber=2
Year=2017



Register


Thanks:
(2) Rosen, varlam4,
Go to the top of the page
  Insert nick Quick quote
+Quote Post

Reply to this topicStart new topic
1 User(s) are reading this topic (1 Guests and 0 Anonymous Users)
0 Members:

 



- Lo-Fi Version Support form
Copyrights and abuse reports form
Time is now: 12th December 2018 - 03:39:13