Welcome Guest ( Log In | Register )

 
ОтветитьСоздать новую тему
> Grind Insides - Acient Gore Sickness [ep] (2017), Goregrind
post Nov 13 2017, 15:32:44
Post #1

Serial Uploader
Group Icon
Group: V.I.P
Posts: 31,468
Releases: 29800
From: Lithuania
On Forums: 9 years 8 months
Thanks: 342147 time(s)
Lithuania


(IMG:https://metalarea.org/images/audiocovers/2017_Nov/acov_tid297747_thumb.jpg)

*Artist: Grind Insides
*Album: Acient Gore Sickness [ep]
*Year: 2017
*Genre: Goregrind
*Country: Hungary (IMG:https://metalarea.org/forum/style_images/flags/Hungary.png)
*Format: mp3@CBR320kbps
*Size: 11MB

Tracklist:
01. Brain Disfigurement 00:21
02. Chainsaw Embryectomy 00:34
03. Liquid Gore Grinding 00:55
04. Maggot Disembowelment In A Bloody Rotten Corpse 00:42
05. Pathological Torture 00:54
06. Putrefacting Vomit (Demo) 00:34
07. Rotten Insides Of A Gutted Pig 00:35
******************************
Total playing time: 4:35



Technical info
(IMG:https://metalarea.org/images/spectrogram/2017_Nov/dcf54949ef0c0e0b008b3595da7089f8.png)
Input File: 02. Chainsaw Embryectomy.mp3
Channels : 1
Sample Rate : 44100
Precision : 16-bit
Duration : 00:00:34.01 = 1500017 samples = 2551.05 CDDA sectors
File Size : 1.43M
Bit Rate : 337k
Sample Encoding: MPEG audio (layer I, II or III)
Comments :
Title=Chainsaw Embryectomy
Artist=Grind Insides
Album=Acient Gore Sickness
Tracknumber=2
Year=2017



Register


Thanks:
Вернуться к началу страницы
  Insert nick Quick quote
+Цитировать сообщение

ОтветитьСоздать новую тему
1 User(s) are reading this topic (1 Guests and 0 Anonymous Users)
0 Members:

 



- Lo-Fi Version Support form
Copyrights and abuse reports form
Time is now: 24th February 2018 - 05:31:18