Welcome Guest ( Log In | Register )

 
Reply to this topicStart new topic
> XsaladcrusherX - El Holy Peño [ep] (2017), Grindcore
post Nov 13 2017, 15:57:22
Post #1

Serial Uploader
Group Icon
Group: V.I.P
Posts: 33,056
Releases: 31341
From: Lithuania
On Forums: 10 years 3 months
Thanks: 358559 time(s)
Lithuania


(IMG:http://metalarea.org/images/audiocovers/2017_Nov/acov_tid297751_thumb.jpg)

*Artist: XsaladcrusherX
*Album: El Holy Peño [ep]
*Year: 2017
*Genre: Grindcore
*Country: Canada (IMG:http://metalarea.org/forum/style_images/flags/Canada.png)
*Format: mp3@CBR320kbps
*Size: 24MB

Tracklist:
01. I'm Not Interested In Talking To You 00:43
02. Your Excrement Will Become My Sustenance 00:27
03. Naming Every Record "Demo" 00:33
04. Cat Shit Harvester 00:44
05. Homicide By Gaseous Anal Eruption 00:40
06. Scoville Induced Glossectomy 00:30
07. The First Name We Gave This One Was Dumb 00:39
08. Buying Drugs/Drying Bugs 00:32
09. In The Name Of The Father, The Son, And The Holy Peño, Amen 00:17
10. Crypt Squisher 00:26
11. Prerequisites Of Punk 00:41
12. Ferrous Beuller 00:24
13. People Who Eat Pickles Are Nice People 00:27
14. I'm A Bunch Of Farts Wrapped In Skin 00:23
15. Eat My Liquid Shit You Diaper Drinking Pussy 00:16
16. Band Politics 00:27
17. Songs About Cops 00:18
18. Johnny 2x4 00:17
19. I Am A Salad Warrior 00:49
******************************
Total playing time: 9:33



Technical info
(IMG:http://metalarea.org/images/spectrogram/2017_Nov/58b62bf083be903bfa9cd5bae249b56b.png)
Input File: 02. Your Excrement Will Become My Sustenance.mp3
Channels : 2
Sample Rate : 44100
Precision : 16-bit
Duration : 00:00:27.54 = 1214294 samples = 2065.13 CDDA sectors
File Size : 1.20M
Bit Rate : 350k
Sample Encoding: MPEG audio (layer I, II or III)
Comments :
Title=Your Excrement Will Become My Sustenance
Artist=XsaladcrusherX
Album=El Holy PeГ±o
Tracknumber=2
Year=2017



Register


Thanks:
Go to the top of the page
  Insert nick Quick quote
+Quote Post

Reply to this topicStart new topic
1 User(s) are reading this topic (1 Guests and 0 Anonymous Users)
0 Members:

 



- Lo-Fi Version Support form
Copyrights and abuse reports form
Time is now: 19th September 2018 - 14:22:42