Welcome Guest ( Log In | Register )

> Drone - Symbiosis (1996), Power/Thrash/Groove Metal (D7)
post Nov 13 2017, 16:29:18
Post #1
BAN
Banned till
Dec 17 2018, 13:32:01



(IMG:https://metalarea.org/images/audiocovers/2017_Nov/acov_tid297754_thumb.jpg)

*Artist: Drone
*Album: Symbiosis
*Year: 1996
*Genre: Power/Thrash/Groove Metal
*Country: United States (IMG:https://metalarea.org/forum/style_images/flags/United%20States.png)
*Format: mp3@CBR320kbps
*Size: 70MB

Tracklist:
01. C'est la vie 4:37
02. Badge of Pain 3:51
03. Kismet 3:25
04. Reflection 3:41
05. For the Sake of Killing 4:32
06. Facade 3:53
07. Follow Me Now 4:17
08. The Gift 4:21
******************************
Total playing time: 32:37

Technical info
(IMG:https://metalarea.org/images/spectrogram/2017_Nov/54063696bbe7d6baca5fd7696c0a20a2.png)
Input File: 01 - C\'est La Vie.mp3
Channels : 2
Sample Rate : 44100
Precision : 16-bit
Duration : 00:04:39.35 = 12319467 samples = 20951.5 CDDA sectors
File Size : 11.2M
Bit Rate : 320k
Sample Encoding: MPEG audio (layer I, II or III)



Register


Go to the top of the page
  Insert nick Quick quote
+Quote Post
 
Start new topic
Replies (1 - 2)
post Sep 28 2018, 12:23:08
Post #2

Подвал
**************
Group: Металариец
Posts: 12,761
Releases: 7159
From: Far East (Khabarovsk)
On Forums: 9 years 10 months
Thanks: 66941 time(s)
Russian Federation


reupload please
Go to the top of the page
  Insert nick Quick quote
+Quote Post
post Oct 1 2018, 00:06:50
Post #3

Правь статус, ####!111
**************
Group: Металариец
Posts: 2,086
Releases: 0
On Forums: 3 years 7 months
Thanks: 2029 time(s)
Russian Federation


Та же папка
Register


Go to the top of the page
  Insert nick Quick quote
+Quote Post

Reply to this topicStart new topic
1 User(s) are reading this topic (1 Guests and 0 Anonymous Users)
0 Members:

 



- Lo-Fi Version Support form
Copyrights and abuse reports form
Time is now: 12th December 2018 - 03:48:44