Welcome Guest ( Log In | Register )

 
Reply to this topicStart new topic
> Drone - Symbiosis (1996), Power/Thrash/Groove Metal (D7)
post Nov 13 2017, 16:29:18
Post #1
BAN
Banned till
Jun 28 2018, 15:53:36



(IMG:https://metalarea.org/images/audiocovers/2017_Nov/acov_tid297754_thumb.jpg)

*Artist: Drone
*Album: Symbiosis
*Year: 1996
*Genre: Power/Thrash/Groove Metal
*Country: United States (IMG:https://metalarea.org/forum/style_images/flags/United%20States.png)
*Format: mp3@CBR320kbps
*Size: 70MB

Tracklist:
01. C'est la vie 4:37
02. Badge of Pain 3:51
03. Kismet 3:25
04. Reflection 3:41
05. For the Sake of Killing 4:32
06. Facade 3:53
07. Follow Me Now 4:17
08. The Gift 4:21
******************************
Total playing time: 32:37

Technical info
(IMG:https://metalarea.org/images/spectrogram/2017_Nov/54063696bbe7d6baca5fd7696c0a20a2.png)
Input File: 01 - C\'est La Vie.mp3
Channels : 2
Sample Rate : 44100
Precision : 16-bit
Duration : 00:04:39.35 = 12319467 samples = 20951.5 CDDA sectors
File Size : 11.2M
Bit Rate : 320k
Sample Encoding: MPEG audio (layer I, II or III)



Register


Go to the top of the page
  Insert nick Quick quote
+Quote Post

Reply to this topicStart new topic
1 User(s) are reading this topic (1 Guests and 0 Anonymous Users)
0 Members:

 



- Lo-Fi Version Support form
Copyrights and abuse reports form
Time is now: 20th June 2018 - 20:01:53