Welcome Guest ( Log In | Register )

 
ОтветитьСоздать новую тему
> Drone - A New Utopia (1995), Power/Thrash/Groove Metal (D7)
post Nov 13 2017, 16:35:27
Post #1
BAN
RO till
Feb 26 2018, 11:14:38



(IMG:https://metalarea.org/images/audiocovers/2017_Nov/acov_tid297755_thumb.gif)

*Artist: Drone
*Album: A New Utopia
*Year: 1995
*Genre: Power/Thrash/Groove Metal
*Country: United States (IMG:https://metalarea.org/forum/style_images/flags/United%20States.png)
*Format: mp3@CBR320kbps
*Size: 86MB

Tracklist:
01. LIttle Big Man 4:10
02. Grave 4:38
03. The Weight 2:51
04. Hypnotized 4:22
05. Denial 3:05
06. Dirge 5:40
07. Fame Or Infamy 3:05
08. Prominence 4:56
09. Behind The Mask 3:27
10. Concrete Walls 3:59
******************************
Total playing time: 40:13

Technical info
(IMG:https://metalarea.org/images/spectrogram/2017_Nov/ef38b9a035cf841a1bfcef0cb7f551cf.png)
Input File: 03 - The Weight.mp3
Channels : 2
Sample Rate : 44100
Precision : 16-bit
Duration : 00:02:51.64 = 7569324 samples = 12873 CDDA sectors
File Size : 6.87M
Bit Rate : 320k
Sample Encoding: MPEG audio (layer I, II or III)



Register


Вернуться к началу страницы
  Insert nick Quick quote
+Цитировать сообщение

ОтветитьСоздать новую тему
1 User(s) are reading this topic (1 Guests and 0 Anonymous Users)
0 Members:

 



- Lo-Fi Version Support form
Copyrights and abuse reports form
Time is now: 23rd February 2018 - 03:53:24