Welcome Guest ( Log In | Register )

> Drone - Machines Of Tolerance (1998), Power/Thrash/Groove Metal (D7)
post Nov 13 2017, 16:43:45
Post #1
BAN
Banned till
Dec 17 2018, 13:32:01



(IMG:https://metalarea.org/images/audiocovers/2017_Nov/acov_tid297756_thumb.gif)

*Artist: Drone
*Album: Machines Of Tolerance
*Year: 1998
*Genre: Power/Thrash/Groove Metal
*Country: United States (IMG:https://metalarea.org/forum/style_images/flags/United%20States.png)
*Format: mp3@CBR320kbps
*Size: 100MB

Tracklist:
01. Heart of Thorns 3:22
02. Why? 4:19
03. Perfekt World 3:36
04. Human Face 4:20
05. Evolution 3:17
06. Dusk 2:05
07. LIfe Suspended 4:54
08. Sometimes, the Fools 4:21
09. My Own Judas 5:23
10. And Then They Were None 5:24
11. The Amerikan Dream 3:27
******************************
Total playing time: 44:28

Technical info
(IMG:https://metalarea.org/images/spectrogram/2017_Nov/3ecc09d18b72e811c2e83bb9a2cdae06.png)
Input File: 02 - Why.mp3
Channels : 2
Sample Rate : 44100
Precision : 16-bit
Duration : 00:04:19.60 = 11448492 samples = 19470.2 CDDA sectors
File Size : 10.4M
Bit Rate : 320k
Sample Encoding: MPEG audio (layer I, II or III)



Register


Go to the top of the page
  Insert nick Quick quote
+Quote Post
 
Start new topic
Replies (1 - 2)
post Sep 28 2018, 12:22:49
Post #2

Подвал
**************
Group: Металариец
Posts: 12,761
Releases: 7159
From: Far East (Khabarovsk)
On Forums: 9 years 10 months
Thanks: 66941 time(s)
Russian Federation


reupload please
Go to the top of the page
  Insert nick Quick quote
+Quote Post
post Oct 1 2018, 00:19:01
Post #3

Правь статус, ####!111
**************
Group: Металариец
Posts: 2,086
Releases: 0
On Forums: 3 years 7 months
Thanks: 2029 time(s)
Russian Federation


Аналогично
Register


Go to the top of the page
  Insert nick Quick quote
+Quote Post

Reply to this topicStart new topic
1 User(s) are reading this topic (1 Guests and 0 Anonymous Users)
0 Members:

 



- Lo-Fi Version Support form
Copyrights and abuse reports form
Time is now: 12th December 2018 - 04:01:33