Welcome Guest ( Log In | Register )

> И неформату есть предел.

Рэп/хип-хоп/шансон/поп удаляются. Для них есть свои порталы.

> Оцепеневшие - Разрыв связи. 24 212 дней (2017), Post-Metal/Post-Industrial (D6)
post Nov 13 2017, 17:07:32
Post #1

As Above, so Below
***********
Group: Металариец
Posts: 1,862
Releases: 17
On Forums: 9 years 1 week
Thanks: 3695 time(s)
Russian Federation


(IMG:http://metalarea.org/images/audiocovers/2017_Nov/acov_tid297759_thumb.jpg)

*Artist: Оцепеневшие
*Album: Разрыв связи. 24 212 дней
*Year: 2017
*Genre: Post-Metal/Post-Industrial
*Country: Russian Federation (IMG:http://metalarea.org/forum/style_images/flags/Russian%20Federation.png)
*Format: mp3@CBR320kbps
*Size: 183MB

Tracklist:
1. 23 000 23:14
2. Противление 09:44
3. ДАЕРММУАЗУАЯ 13:47
4. L.B.C.E.S.B. 15:13
5. Sonne Der Toten 08:46
6. Zun 08:13
7. Enter the Void 13:52
******************************
Total playing time: 1:32:49



Extended info
Стена ночного леса за окном электрички. Провалы в памяти и уральский углубоз. Опиум народа и тяжелая психоделия. У меня в груди яма, и в ней болит сердце.

Московский проект Оцепеневшие работает с широкой палитрой окологитарного звука. Если возможно вообразить себе перекресток, где встречаются ультрагравитационный drone-doom, шумовой эмбиент и экстремальный shoegazing, то Оцепеневших можно встретить именно там.

Кассетный вариант издан NEN Records.
Двухдисковое издание будет выпущено на Zhelezobeton.<div align="center"></div>


Technical info
(IMG:http://metalarea.org/images/spectrogram/2017_Nov/a53294bcbdbcc90f9280fd38c728b159.png)
Input File: 02 - Оцепеневшие – Противление (v. 2017).mp3
Channels : 2
Sample Rate : 44100
Precision : 16-bit
Duration : 00:09:44.20 = 25763308 samples = 43815.1 CDDA sectors
File Size : 23.5M
Bit Rate : 322k
Sample Encoding: MPEG audio (layer I, II or III)
Comments :
Title=Противление
Artist=Оцепеневшие
Album=Разрыв Связи. 24 212 дней.
Tracknumber=02/07
Year=2017
Genre=Drone Doom, Noise



Register


Go to the top of the page
  Insert nick Quick quote
+Quote Post
 
Start new topic
Replies (1 - 8)
post Nov 13 2017, 19:19:24
Post #2

стазис эпидерсис
**************
Group: Металариец
Posts: 2,244
Releases: 0
On Forums: 2 years 10 months
Thanks: 1348 time(s)
Unknown


это они по поему с Алук Тодоло были в прошлом году
забыл название клуба в Москве где это происходило
Go to the top of the page
  Insert nick Quick quote
+Quote Post
post Nov 13 2017, 19:26:53
Post #3

WINTER
******
Group: Металариец
Posts: 663
Releases: 55
On Forums: 10 years 8 months
Thanks: 1497 time(s)
Russian Federation


уподобились Panacea Enterpainment и тоже компиляшку выпустили. почти все было на heliophagia'х. но все равно переслушаю
Go to the top of the page
  Insert nick Quick quote
+Quote Post
post Nov 13 2017, 21:02:11
Post #4

As Above, so Below
***********
Group: Металариец
Posts: 1,862
Releases: 17
On Forums: 9 years 1 week
Thanks: 3695 time(s)
Russian Federation


ЦИТАТА(Forest Silence @ Nov 13 2017, 21:26:53) *
почти все было на heliophagia'х. но все равно переслушаю

Тут вроде как перезаписанные вещи.
О[мат->бан]@ельный релиз, тем не менее.

garmonbozia, Brooklyn. Хотел быть там, но не сложилось, увы.
И с японцами Boris в этом году.


Thanks:
Go to the top of the page
  Insert nick Quick quote
+Quote Post
post Nov 14 2017, 09:16:33
Post #5

WINTER
******
Group: Металариец
Posts: 663
Releases: 55
On Forums: 10 years 8 months
Thanks: 1497 time(s)
Russian Federation


если перезаписанные, тогда вообще збсь
Go to the top of the page
  Insert nick Quick quote
+Quote Post
post Nov 14 2017, 11:02:04
Post #6

Dark Ambient Shoujo
**********
Group: Металариец
Posts: 1,050
Releases: 1
On Forums: 9 years 11 months
Thanks: 526 time(s)
Russian Federation


ЦИТАТА
Разрыв связи

(IMG:https://cs6.pikabu.ru/images/big_size_comm/2015-07_4/1437419122187147703.jpg)


Thanks:
Go to the top of the page
  Insert nick Quick quote
+Quote Post
post Nov 14 2017, 15:08:32
Post #7

Восемь Литров
********
Group: Металариец
Posts: 863
Releases: 5
From: Киев
On Forums: 9 years 7 months
Thanks: 1012 time(s)
Ukraine


не мог не вспомнить



Thanks:
Go to the top of the page
  Insert nick Quick quote
+Quote Post
post Nov 14 2017, 21:05:56
Post #8

Group: Подсевший
Posts: 34
Releases: 0
On Forums: 1 year 7 months
Thanks: 6 time(s)
Unknown


я уж подумал, что это "О[мат->бан]еневшие" вернулись...


Thanks:
(1) Chasm,
Go to the top of the page
  Insert nick Quick quote
+Quote Post
post Jan 18 2018, 23:26:47
Post #9

Самый Тихий Час
**************
Group: Металариец
Posts: 5,624
Releases: 0
On Forums: 9 years 1 month
Thanks: 2461 time(s)
Unknown


Круто, однако.
Не был знаком.
Go to the top of the page
  Insert nick Quick quote
+Quote Post

Reply to this topicStart new topic
1 User(s) are reading this topic (1 Guests and 0 Anonymous Users)
0 Members:

 



- Lo-Fi Version Support form
Copyrights and abuse reports form
Time is now: 14th December 2018 - 19:56:09