Welcome Guest ( Log In | Register )

> Skineater - Cerebral Relics [ep] (2017), Old School Death Metal
post Nov 13 2017, 18:05:01
Post #1

Аннигилятор пивА
Group Icon
Group: V.I.P
Posts: 46,815
Releases: 14061
From: Koenigsberg - TILZIT
On Forums: 12 years 3 weeks
Thanks: 312000 time(s)
Russian Federation


(IMG:https://metalarea.org/images/audiocovers/2017_Nov/acov_tid297762_thumb.jpg)

*Artist: Skineater
*Album: Cerebral Relics [ep]
*Year: 2017
*Genre: Old School Death Metal
*Country: Sweden (IMG:https://metalarea.org/forum/style_images/flags/Sweden.png)
*Format: mp3@CBR320kbps
*Size: 54MB

Tracklist:
1. Anthropomorphic Memorandum 01:00
2. Sociopath to Enlightenment 04:35
3. A Woman Will Die in the North 03:51
4. Sentinels of Misery 04:01
5. Compost Planet 04:08
6. Labeled; Confidential 05:15
******************************
Total playing time: 22:50



Extended info
Кодек Gogo
A brutal slice of Swedish old school thrashing death metal from associated members of classic Swede bands Sabaton, In Thy Dreams, Ribspreader, Wombbath, Armageddon, The Absence, Necromancing the Stone..

Håkan Stuvemark - Guitars (rhythm) (2008-present) See also: Pale King, Wombbath, ex-In Thy Dreams, ex-Vicious
Stefan Westerberg - Bass, Vocals (backing) (2011-present) See also: Leech, Steel Attack, ex-In Thy Dreams, ex-Asperity, ex-Carnal Forge, ex-Wasteland Skills, ex-World Below, ex-Kryptillusion, ex-Mayer's Eve
Matte Modin - Drums (2011-present) See also: Firespawn, The Hidden, ex-Defleshed, ex-Embalmed, ex-Sportlov, Raised Fist, ex-Dark Funeral, ex-Nonexist, ex-Sarcasm, ex-Usurpress, ex-Infernal, ex-Fireborn
Kari Kainulainen - Guitars (lead) (2012-present) See also: Mourning Sign, Pavlovian Dogs, Sibliance, ex-Amaran
Jonny Pettersson - Vocals (2014-present) See also: Ashcloud, Gods Forsaken, Henry Kane, Human Harvest, Just Before Dawn, Pale King, Syn:drom, Ursinne, Vholdghast, Wombbath, ex-Disfigured Victims, ex-Cavevomit, Troikadon, ex-Sorghegard, ex-Ooz


Technical info
(IMG:https://metalarea.org/images/spectrogram/2017_Nov/0d096326a491932f22d75429f7f76dc7.png)
Input File: 2 Sociopath to Enlightenment.mp3
Channels : 2
Sample Rate : 44100
Precision : 16-bit
Duration : 00:04:36.09 = 12175613 samples = 20706.8 CDDA sectors
File Size : 11.1M
Bit Rate : 322k
Sample Encoding: MPEG audio (layer I, II or III)
Comments :
Title=Sociopath to Enlightenment
Artist=Skineater
Album=Cerebral Relics
Tracknumber=2/6
Year=2017
Genre=17
Discnumber=1/1



Register


Go to the top of the page
  Insert nick Quick quote
+Quote Post
 
Start new topic
Replies (1 - 2)
post Nov 13 2017, 19:25:28
Post #2

Аннигилятор пивА
Group Icon
Group: V.I.P
Posts: 46,815
Releases: 14061
From: Koenigsberg - TILZIT
On Forums: 12 years 3 weeks
Thanks: 312000 time(s)
Russian Federation


MIRROR
Register


Go to the top of the page
  Insert nick Quick quote
+Quote Post
post Nov 15 2017, 10:38:54
Post #3

Маньяк
**********
Group: Металариец
Posts: 1,062
Releases: 0
From: Dnipro
On Forums: 9 years 11 months
Thanks: 275 time(s)
Ukraine


Смотрю сейчас модно стало на любой релиз по Death Metal, лепить лейбак Old School.
Типа это сразу крутости альбому придает. Нет тут ни какого олдскула, но от этого епишка не становится
не пригодной к прослушиванию, а даже на оборот. Очень годный, достойный материал практически в духе
Гетеборгского melodic death metal. (IMG:style_emoticons/default/20.gif)
Go to the top of the page
  Insert nick Quick quote
+Quote Post

Reply to this topicStart new topic
1 User(s) are reading this topic (1 Guests and 0 Anonymous Users)
0 Members:

 



- Lo-Fi Version Support form
Copyrights and abuse reports form
Time is now: 20th June 2018 - 19:59:34