Welcome Guest ( Log In | Register )

> И неформату есть предел.

Рэп/хип-хоп/шансон/поп удаляются. Для них есть свои порталы.

> Bullet For My Valentine - Live From Brixton: Chapter Two [live] (2017), Melodic Metalcore (D17)
post Nov 13 2017, 18:12:43
Post #1

Литр
*
Group: Подсевший
Posts: 82
Releases: 45
On Forums: 6 years 1 week
Thanks: 1058 time(s)
Unknown


(IMG:http://metalarea.org/images/audiocovers/2017_Nov/acov_tid297763_thumb.jpg)

*Artist: Bullet For My Valentine
*Album: Live From Brixton: Chapter Two [live]
*Year: 2017
*Genre: Melodic Metalcore
*Country: United Kingdom (IMG:http://metalarea.org/forum/style_images/flags/United%20Kingdom.png)
*Format: mp3@CBR320kbps
*Size: 370MB

Tracklist:
Night One:
01. V
02. No Way Out
03. Skin
04. Your Betrayal
05. Scream, Aim, Fire
06. Venom
07. 4 Words (To Choke Upon)
08. You Want A Battle? Here's A War
09. The Last Fight
10. Hearts Burst Into Fire
11. Alone
12. Worthless
13. Hand Of Blood
14. Don't Need You
15. Tears Don't Fall
16. Waking The Demon

Night Two, Performing the Poison In Its Entirety:
01. Intro
02. Her Voice Resides
03. 4 Words (To Choke Upon)
04. Tears Don't Fall
05. Suffocating Under Words Of Sorrow (What Can I Do)
06. Hit The Floor
07. All These Things I Hate (Revolve Around Me)
08. Room 409
09. The Poison
10. 10 Years Today
11. Cries In Vain
12. Spit You Out
13. The End
14. V
15. No Way Out
16. Your Betrayal
17. Waking The Demon
18. Don't Need You
******************************
Total playing time: 2:40:03

Preview 1

Technical info
(IMG:http://metalarea.org/images/spectrogram/2017_Nov/cfac781dcd5a0215b27db914fccea4e2.png)
Input File: 01. V (Live).mp3
Channels : 2
Sample Rate : 44100
Precision : 16-bit
Duration : 00:01:28.89 = 3920093 samples = 6666.82 CDDA sectors
File Size : 3.64M
Bit Rate : 327k
Sample Encoding: MPEG audio (layer I, II or III)
Comments :
Title=V (Live)
Artist=Bullet for My Valentine
Album=Live From Brixton: Chapter Two, Night One
Tracknumber=1/16
Year=2017



Register


Thanks:
Go to the top of the page
  Insert nick Quick quote
+Quote Post
 
Start new topic
Replies (1 - 7)
post Nov 14 2017, 03:59:48
Post #2

Литр
*
Group: Подсевший
Posts: 82
Releases: 45
On Forums: 6 years 1 week
Thanks: 1058 time(s)
Unknown


Зеркало:
Register
Go to the top of the page
  Insert nick Quick quote
+Quote Post
post Nov 14 2017, 12:20:55
Post #3

Prisoner Of Our Time
**************
Group: Металариец
Posts: 3,922
Releases: 39
From: Луганск, 13 регион, экс-"404"
On Forums: 12 years 10 months
Thanks: 1124 time(s)
Unknown


в неформат его перенесите плиз (IMG:style_emoticons/default/look.gif)
это ж альтернатива
Go to the top of the page
  Insert nick Quick quote
+Quote Post
post Nov 14 2017, 14:32:56
Post #4

Литр
*
Group: Подсевший
Posts: 82
Releases: 45
On Forums: 6 years 1 week
Thanks: 1058 time(s)
Unknown


ЦИТАТА(Alexis The Best @ Nov 14 2017, 12:20:55) *
в неформат его перенесите плиз (IMG:style_emoticons/default/look.gif)
это ж альтернатива


Протестую. В лайве присутствует творчество за всё время существования группы, в то время, как последние релизы шли в формате.
Bullet For My Valentine - Venom (2015)
Bullet For My Valentine - You Want A Battle (Here's A War) [single] (2015)
Bullet For My Valentine - Temper Temper (2013)
Go to the top of the page
  Insert nick Quick quote
+Quote Post
post Nov 14 2017, 15:13:02
Post #5

Котеги! Нравяцо котеги?
**************
Group: Металариец
Posts: 4,874
Releases: 0
From: Терра Инкогнита
On Forums: 8 years 3 months
Thanks: 1686 time(s)
Russian Federation


Ну Веном так вообще так вообще натуральный МДМ был
Go to the top of the page
  Insert nick Quick quote
+Quote Post
post Nov 14 2017, 21:30:13
Post #6

Девять Литров
*********
Group: Металариец
Posts: 991
Releases: 0
On Forums: 7 years 4 months
Thanks: 419 time(s)
Unknown


It's terrible Metalcore. Unformat is fine.
Go to the top of the page
  Insert nick Quick quote
+Quote Post
post Nov 15 2017, 00:34:34
Post #7

Join my religion, or die
**************
Group: Металариец
Posts: 9,579
Releases: 1147
From: Питера
On Forums: 8 years 11 months
Thanks: 15680 time(s)
Russian Federation


Меня за релизы Булетов даже банили как то много лет назад...
Go to the top of the page
  Insert nick Quick quote
+Quote Post
post Nov 22 2017, 13:39:28
Post #8

Котеги! Нравяцо котеги?
**************
Group: Металариец
Posts: 4,874
Releases: 0
From: Терра Инкогнита
On Forums: 8 years 3 months
Thanks: 1686 time(s)
Russian Federation


Второй диск из архива не распаковываеццо
Go to the top of the page
  Insert nick Quick quote
+Quote Post

Reply to this topicStart new topic
1 User(s) are reading this topic (1 Guests and 0 Anonymous Users)
0 Members:

 



- Lo-Fi Version Support form
Copyrights and abuse reports form
Time is now: 19th September 2018 - 13:11:31