Welcome Guest ( Log In | Register )

 
Reply to this topicStart new topic
> Liquid Signal - Liquid Signal [ep] (2016), Stoner/Doom Metal
post Nov 13 2017, 18:21:54
Post #1

Мегаманьяк
***********
Group: Металариец
Posts: 1,554
Releases: 112
From: Omsk, Siberia
On Forums: 9 years 3 months
Thanks: 2457 time(s)
Russian Federation


(IMG:https://metalarea.org/images/audiocovers/2017_Nov/acov_tid297764_thumb.png)

*Artist: Liquid Signal
*Album: Liquid Signal [ep]
*Year: 2016
*Genre: Stoner/Doom Metal
*Country: United States (IMG:https://metalarea.org/forum/style_images/flags/United%20States.png)
*Format: mp3@CBR320kbps
*Size: 59MB

Tracklist:
1. Black Masses 07:16
2. Rush Limbaugh 04:59
3. Lords Of Smoke 04:26
4. Terraformer 09:13
******************************
Total playing time: 25:55





(IMG:https://metalarea.org/images/youtube.png)

Extended info
Sam Gruszka - guitar, vocals
Kenadi Arndt - bass
Adam Dowdy - guitar
Christian McCall - drums (Spirit Division (live))


Technical info
(IMG:https://metalarea.org/images/spectrogram/2017_Nov/4db695f7d60bdb3fe5f4625ae8a18e8d.png)
Input File: 03 Lords of Smoke.mp3
Channels : 2
Sample Rate : 44100
Precision : 16-bit
Duration : 00:04:26.47 = 11751459 samples = 19985.5 CDDA sectors
File Size : 10.7M
Bit Rate : 322k
Sample Encoding: MPEG audio (layer I, II or III)
Comments :
Title=Lords of Smoke
Artist=Liquid Signal
Album=Liquid Signal
Tracknumber=3
Year=2016



Register


Go to the top of the page
  Insert nick Quick quote
+Quote Post

Reply to this topicStart new topic
1 User(s) are reading this topic (1 Guests and 0 Anonymous Users)
0 Members:

 



- Lo-Fi Version Support form
Copyrights and abuse reports form
Time is now: 20th June 2018 - 05:08:03