Welcome Guest ( Log In | Register )

> DavidiaN - Soulless Flesh Machine (2017), Thrash Metal (D4)
post Nov 13 2017, 18:35:40
Post #1

Аннигилятор пивА
Group Icon
Group: V.I.P
Posts: 48,780
Releases: 14911
From: Koenigsberg - TILZIT
On Forums: 12 years 3 months
Thanks: 326844 time(s)
Russian Federation


(IMG:https://metalarea.org/images/audiocovers/2017_Nov/acov_tid297765_thumb.jpg)

*Artist: DavidiaN
*Album: Soulless Flesh Machine
*Year: 2017
*Genre: Thrash Metal
*Country: United States (IMG:https://metalarea.org/forum/style_images/flags/United%20States.png)
*Format: mp3@CBR320kbps
*Size: 70MB

Tracklist:
1. Synthetic 05:06
2. Spinesaw 05:05
3. Despiritualies 06:01
4. System Condemned 05:10
5. Cemeteries In The Sand 07:50
******************************
Total playing time: 29:12



Extended info
Shawn Kapinos (vocals), Dan Coxey (Guitars), Jay Legarra ( Guitars), Kip Pearce (Bass), Shawn Langford (Drums)


Technical info
(IMG:https://metalarea.org/images/spectrogram/2017_Nov/81bc61406f971dcae981624bbda7983a.png)
Input File: 1 - Synthetic.mp3
Channels : 2
Sample Rate : 44100
Precision : 16-bit
Duration : 00:05:06.16 = 13501480 samples = 22961.7 CDDA sectors
File Size : 12.4M
Bit Rate : 323k
Sample Encoding: MPEG audio (layer I, II or III)
Comments :
Title=Synthetic
Artist=Davidian
Album=Soulless Flesh Machine
Tracknumber=1/5
Year=2017
Genre=Thrash Metal



Register


Go to the top of the page
  Insert nick Quick quote
+Quote Post
 
Start new topic
Replies (1 - 2)
post Nov 13 2017, 19:27:17
Post #2

Аннигилятор пивА
Group Icon
Group: V.I.P
Posts: 48,780
Releases: 14911
From: Koenigsberg - TILZIT
On Forums: 12 years 3 months
Thanks: 326844 time(s)
Russian Federation


MIRROR
Register




Thanks:
(1) Buregon,
Go to the top of the page
  Insert nick Quick quote
+Quote Post
post Nov 13 2017, 22:09:25
Post #3

Маньяк
**********
Group: Металариец
Posts: 1,286
Releases: 5
From: Нью-Васюки
On Forums: 12 years 4 months
Thanks: 369 time(s)
Russian Federation


Альбом можно обозвать одним словом - "Нудятина". В корзину.


Thanks:
(1) AHBAnep,
Go to the top of the page
  Insert nick Quick quote
+Quote Post

Reply to this topicStart new topic
1 User(s) are reading this topic (1 Guests and 0 Anonymous Users)
0 Members:

 



- Lo-Fi Version Support form
Copyrights and abuse reports form
Time is now: 19th September 2018 - 13:29:58