Welcome Guest ( Log In | Register )

> Ankt - Ankt (2017), Black/Doom Metal
post Nov 13 2017, 18:39:46
Post #1

Аннигилятор пивА
Group Icon
Group: V.I.P
Posts: 50,761
Releases: 15819
From: Koenigsberg - TILZIT
On Forums: 12 years 6 months
Thanks: 345043 time(s)
Russian Federation


(IMG:https://metalarea.org/images/audiocovers/2017_Nov/acov_tid297766_thumb.jpg)

*Artist: Ankt
*Album: Ankt
*Year: 2017
*Genre: Black/Doom Metal
*Country: Brazil (IMG:https://metalarea.org/forum/style_images/flags/Brazil.png)
*Format: mp3@CBR320kbps
*Size: 132MB

Tracklist:
01. Sun 02:00
02. Leaves 06:59
03. Please 04:32
04. Au Revoir 04:59
05. Frost 06:28
06. Sixth 05:27
07. Distance 04:48
08. Subversion 05:32
09. Drowned 05:38
10. Ankt 06:25
11. Youngest 04:31
******************************
Total playing time: 57:19



Technical info
(IMG:https://metalarea.org/images/spectrogram/2017_Nov/e70d5683a39c97bf3b06ae191285118b.png)
Input File: 03 - Please.mp3
Channels : 2
Sample Rate : 44100
Precision : 16-bit
Duration : 00:04:32.82 = 12031450 samples = 20461.6 CDDA sectors
File Size : 10.9M
Bit Rate : 321k
Sample Encoding: MPEG audio (layer I, II or III)
Comments :
Title=Please
Artist=Ankt
Album=Ankt
Tracknumber=3/11
Year=2017
Genre=Black Metal



Register


Go to the top of the page
  Insert nick Quick quote
+Quote Post
 
Start new topic
Replies (1 - 3)
post Nov 14 2017, 07:18:29
Post #2

Аннигилятор пивА
Group Icon
Group: V.I.P
Posts: 50,761
Releases: 15819
From: Koenigsberg - TILZIT
On Forums: 12 years 6 months
Thanks: 345043 time(s)
Russian Federation


MIRROR
Register
Go to the top of the page
  Insert nick Quick quote
+Quote Post
post Nov 16 2017, 20:28:18
Post #3

кручу наждак
**************
Group: Металариец
Posts: 3,578
Releases: 92
From: Самара
On Forums: 8 years 6 months
Thanks: 2692 time(s)
Russian Federation


Чота муть какая-то


Thanks:
Go to the top of the page
  Insert nick Quick quote
+Quote Post
post Feb 12 2018, 22:22:55
Post #4

antithesis
**************
Group: Металариец
Posts: 2,448
Releases: 30
From: VRN
On Forums: 8 years 6 months
Thanks: 1328 time(s)
Russian Federation


невнятное нечто с зефирным уклоном
Go to the top of the page
  Insert nick Quick quote
+Quote Post

Reply to this topicStart new topic
1 User(s) are reading this topic (1 Guests and 0 Anonymous Users)
0 Members:

 



- Lo-Fi Version Support form
Copyrights and abuse reports form
Time is now: 12th December 2018 - 04:26:02