Welcome Guest ( Log In | Register )

 
Reply to this topicStart new topic
> Trident - Power Of The Trident [best of/compilation] (2017), Heavy Metal/NWOBHM (D)
post Nov 13 2017, 19:17:31
Post #1

MDM-Thrash Metal
**************
Group: Металариец
Posts: 6,801
Releases: 412
From: Одесса
On Forums: 10 years 10 months
Thanks: 12954 time(s)
Ukraine


(IMG:http://metalarea.org/images/audiocovers/2017_Nov/acov_tid297768_thumb.jpg)

*Artist: Trident
*Album: Power Of The Trident [best of/compilation]
*Year: 2017
*Genre: Heavy Metal/NWOBHM
*Country: United Kingdom (IMG:http://metalarea.org/forum/style_images/flags/United%20Kingdom.png)
*Format: mp3@CBR320kbps
*Size: 198MB

Tracklist:
Disk 1
1. Power of the Trident 05:21
2. Destiny 05:20
3. The Bringer of Light 04:38
4. Lucrezia's Fool 06:07
5. Excalibur 03:47
6. Heartbreaker 05:32
7. Gettin' Nowhere 04:16
8. Thunderbird 03:51
9. What'll I Do 05:32
Disk 2
10. Lucrezia's Fool 06:01
11. Excalibur 03:21
12. Heartbreaker 05:49
13. Hollywood Attack 04:54
14. Broken Dream 05:15
15. She's 17 03:36
16. Love Ain't a Fool 05:01
17. Six Time Lover 03:38
18. Hard Stuff 04:23
******************************
Total playing time: 1:26:22

(IMG:http://metalarea.org/images/youtube.png)
(IMG:http://metalarea.org/images/youtube.png)
(IMG:http://metalarea.org/images/youtube.png)
(IMG:http://metalarea.org/images/youtube.png)

Extended info
Label: Cult Metal Classics ‎– CULTMETALTRDNTCD
Format: 2×CD, Compilation, Limited Edition, Remastered
Released: 17.10.2017


Technical info
(IMG:http://metalarea.org/images/spectrogram/2017_Nov/ea8f32ea984d9ab29c3b88d571e306ab.png)
Input File: 01_trident_uk_power_of_the_trident.mp3
Channels : 2
Sample Rate : 44100
Precision : 16-bit
Duration : 00:05:21.13 = 14161833 samples = 24084.8 CDDA sectors
File Size : 12.9M
Bit Rate : 321k
Sample Encoding: MPEG audio (layer I, II or III)
Comments :
Title=Power of the Trident
Artist=Trident
Album=Power of the Trident
Tracknumber=1/18
Year=2017
Genre=Heavy Metal/NWOBHM
Discnumber=1/2



Register


Go to the top of the page
  Insert nick Quick quote
+Quote Post

Reply to this topicStart new topic
1 User(s) are reading this topic (1 Guests and 0 Anonymous Users)
0 Members:

 



- Lo-Fi Version Support form
Copyrights and abuse reports form
Time is now: 20th June 2018 - 05:07:26