Welcome Guest ( Log In | Register )

> Devoid - Cup Of Tears (2017), Progressive Heavy/Power Metal (D9)
post Nov 13 2017, 19:39:19
Post #1

MDM-Thrash Metal
**************
Group: Металариец
Posts: 6,190
Releases: 401
From: Одесса
On Forums: 10 years 6 months
Thanks: 11732 time(s)
Ukraine


(IMG:http://metalarea.org/images/audiocovers/2017_Nov/acov_tid297769_thumb.jpg)

*Artist: Devoid
*Album: Cup Of Tears
*Year: 2017
*Genre: Progressive Heavy/Power Metal
*Country: France (IMG:http://metalarea.org/forum/style_images/flags/France.png)
*Format: mp3@CBR320kbps
*Size: 124MB

Tracklist:
1. Soldiers 05:38
2. Otherworld 04:29
3. Collective Heart 02:57
4. The Clock Is Ticking 04:54
5. Killing Hands 05:56
6. Religion 04:20
7. Agony 03:52
8. Final Breath 02:06
9. Colours Fade to Grey 05:21
10. Mind Keeper 05:01
11. Cup of Tears 04:25
12. Hollow Point 05:03
******************************
Total playing time: 54:02


(IMG:http://metalarea.org/images/youtube.png)
(IMG:http://metalarea.org/images/youtube.png)
(IMG:http://metalarea.org/images/youtube.png)
(IMG:http://metalarea.org/images/youtube.png)

Technical info
(IMG:http://metalarea.org/images/spectrogram/2017_Nov/5e15884a7afdc7343c08960a8ae90e70.png)
Input File: 01_devoid_france_soldiers.mp3
Channels : 2
Sample Rate : 44100
Precision : 16-bit
Duration : 00:05:39.00 = 14949856 samples = 25424.9 CDDA sectors
File Size : 13.6M
Bit Rate : 321k
Sample Encoding: MPEG audio (layer I, II or III)
Comments :
Title=Soldiers
Artist=Devoid
Album=Cup of Tears
Tracknumber=1/12
Year=2017
Genre=Heavy Metal
Discnumber=1/1



Register


Вернуться к началу страницы
  Insert nick Quick quote
+Цитировать сообщение
 
Создать новую тему
Replies (1 - 1)
post Nov 14 2017, 07:17:39
Post #2

hearer & reader
**************
Group: Металариец
Posts: 5,989
Releases: 78
From: Moscow
On Forums: 10 years 5 months
Thanks: 6219 time(s)
Russian Federation


Думаю, здесь более правильно пишется - Mainstream Melodic Metal, хотя элементы всего из шапки найдутся..
Рип, судя по сонограмме, дрянь (IMG:style_emoticons/default/smile2.gif)
Вернуться к началу страницы
  Insert nick Quick quote
+Цитировать сообщение

ОтветитьСоздать новую тему
1 User(s) are reading this topic (1 Guests and 0 Anonymous Users)
0 Members:

 



- Lo-Fi Version Support form
Copyrights and abuse reports form
Time is now: 23rd February 2018 - 03:52:38