Welcome Guest ( Log In | Register )

 
Reply to this topicStart new topic
> The Sound That Ends Creation - Fitting Through The Crawl Space Between Rhyme And Reason (2017), Experimental/Technical Death Metal/Grindcore
post Nov 13 2017, 19:48:43
Post #1

Аннигилятор пивА
Group Icon
Group: V.I.P
Posts: 48,779
Releases: 14911
From: Koenigsberg - TILZIT
On Forums: 12 years 3 months
Thanks: 326833 time(s)
Russian Federation


(IMG:https://metalarea.org/images/audiocovers/2017_Nov/acov_tid297770_thumb.jpg)

*Artist: The Sound That Ends Creation
*Album: Fitting Through The Crawl Space Between Rhyme And Reason
*Year: 2017
*Genre: Experimental/Technical Death Metal/Grindcore
*Country: United States (IMG:https://metalarea.org/forum/style_images/flags/United%20States.png)
*Format: mp3@CBR320kbps
*Size: 43MB

Tracklist:
01. No Rest For The Workin' Man 02:29
02. Dude, My Job Is Smoking The Dankest Of The Dank 01:14
03. Do Kids From Arkansas Ride Horses To School? 01:46
04. Uncle Sam Wants You! (To Go Fight For A Corporation) 01:01
05. Your Mom Is Too Big To Fail 02:02
06. Seeing The World Through The Eyes Of A Bitter Old Man 01:40
07. That's Somebody's Mother You're Messing With 02:49
08. Ronald McLandfill 01:25
09. This Is Your Brain On Propaganda 01:16
10. I Love The Way Your Hair Looks After A Nuclear Holocaust 02:04
******************************
Total playing time: 17:46



Extended info
Instead of the crystal clear production and over technical boring releases that plague the extreme scene, The Sound That Ends Creation presents the listener with a gritty, raw, and truly evocative slab of extreme music.
The Sound That Ends Creation successfully blends together all of the styles in extreme music. Grindcore, death metal, black metal, mathcore, and even sludge/stoner metal are all proudly on display in the uncompromising assault of music


Technical info
(IMG:https://metalarea.org/images/spectrogram/2017_Nov/2c1db8b2d3d1a4b83987e0fb37936825.png)
Input File: 03 Do Kids From Arkansas Ride Horses To School-.mp3
Channels : 2
Sample Rate : 44100
Precision : 16-bit
Duration : 00:01:46.96 = 4716716 samples = 8021.63 CDDA sectors
File Size : 4.44M
Bit Rate : 332k
Sample Encoding: MPEG audio (layer I, II or III)
Comments :
Title=Do Kids From Arkansas Ride Horses To School?
Artist=The Sound That Ends Creation
Album=Fitting Through The Crawl Space Between Rhyme And Reason
Tracknumber=3
Year=2017



Register


Go to the top of the page
  Insert nick Quick quote
+Quote Post

Reply to this topicStart new topic
1 User(s) are reading this topic (1 Guests and 0 Anonymous Users)
0 Members:

 



- Lo-Fi Version Support form
Copyrights and abuse reports form
Time is now: 19th September 2018 - 12:04:06