Welcome Guest ( Log In | Register )

> Dark Matter - Wood Lane (2017), Doom Metal
post Nov 13 2017, 20:28:45
Post #1

Аннигилятор пивА
Group Icon
Group: V.I.P
Posts: 46,805
Releases: 14057
From: Koenigsberg - TILZIT
On Forums: 12 years 3 weeks
Thanks: 311905 time(s)
Russian Federation


(IMG:https://metalarea.org/images/audiocovers/2017_Nov/acov_tid297771_thumb.jpg)

*Artist: Dark Matter
*Album: Wood Lane
*Year: 2017
*Genre: Doom Metal
*Country: United Kingdom (IMG:https://metalarea.org/forum/style_images/flags/United%20Kingdom.png)
*Format: mp3@CBR320kbps
*Size: 107MB

Tracklist:
1. King Of Colours 06:39
2. The Truth Is Out There 09:03
3. Four Walled World 07:45
4. Wood Lane 07:12
5. Down In The Valley 08:30
6. March Out To The Sun 07:01
******************************
Total playing time: 46:10



Extended info
Doom with a touch of Prog

Dave Gilbert - Guitars, Bass, Synth, Vocals
Stefan Hepe - Drums & Percussion, Woodwinds
with
Ben Bell (Patchwork Cacophony) - Piano Solo on Wood Lane


Technical info
(IMG:https://metalarea.org/images/spectrogram/2017_Nov/71bd7d592a1b4c672fa164d49682411d.png)
Input File: 01 - King of Colours.mp3
Channels : 2
Sample Rate : 44100
Precision : 16-bit
Duration : 00:06:39.66 = 17624830 samples = 29974.2 CDDA sectors
File Size : 16.2M
Bit Rate : 324k
Sample Encoding: MPEG audio (layer I, II or III)
Comments :
Title=King of Colours
Artist=Dark Matter
Album=Wood Lane
Tracknumber=1/6
Year=2017
Genre=Metal



Register


Go to the top of the page
  Insert nick Quick quote
+Quote Post
 
Start new topic
Replies (1 - 5)
post Nov 14 2017, 07:31:56
Post #2

hearer & reader
**************
Group: Металариец
Posts: 6,388
Releases: 81
From: Moscow
On Forums: 10 years 9 months
Thanks: 6414 time(s)
Russian Federation


Кажись, ничего не изменилось с прошлого пластикового альбома.
Стабильность - признак...
Go to the top of the page
  Insert nick Quick quote
+Quote Post
post Nov 14 2017, 07:44:46
Post #3

Аннигилятор пивА
Group Icon
Group: V.I.P
Posts: 46,805
Releases: 14057
From: Koenigsberg - TILZIT
On Forums: 12 years 3 weeks
Thanks: 311905 time(s)
Russian Federation


ЦИТАТА(AHBAnep @ Nov 14 2017, 06:31:56) *
Кажись, ничего не изменилось с прошлого пластикового альбома.
Стабильность - признак...

А в чем пластиковость выражается? в винтажном ламповом звуке а-ля старый блэк саббат или ранний джудас прист? мне интересно применение данного термина к олдскулу и живым инструментам, тут явно влияние старой британской школы хэви/дума с прог инфлюенциями в духе тех-же Hawkwind
Go to the top of the page
  Insert nick Quick quote
+Quote Post
post Nov 14 2017, 22:31:15
Post #4

хаос и порядок
***
Group: Завсегдатай
Posts: 276
Releases: 0
From: Запорожье
On Forums: 8 years 1 month
Thanks: 91 time(s)
Ukraine


ЦИТАТА(aesteticvice @ 14th November 2017 - 10:44:46) *
А в чем пластиковость выражается?

д, в чём-то он прав, слишком уж вычищено всё, от дума хочется посырее звука. музыка есть, музыкантов в ней нет.
Go to the top of the page
  Insert nick Quick quote
+Quote Post
post Jan 11 2018, 13:51:14
Post #5

i listen to black metal
**************
Group: Металариец
Posts: 2,167
Releases: 129
From: Москва-Лианозово
On Forums: 11 years 5 months
Thanks: 1999 time(s)
Russian Federation


Лепота - этакий ранний Пинк Флойд без примочек и с жирной гитарой)))
Go to the top of the page
  Insert nick Quick quote
+Quote Post
post Feb 1 2018, 10:08:50
Post #6

Наливай!
**************
Group: Металариец
Posts: 5,024
Releases: 27
From: Москва-Бибирево
On Forums: 10 years 3 months
Thanks: 2332 time(s)
Russian Federation


Из-за голоса слушать нет никакого желания.
Go to the top of the page
  Insert nick Quick quote
+Quote Post

Reply to this topicStart new topic
1 User(s) are reading this topic (1 Guests and 0 Anonymous Users)
0 Members:

 



- Lo-Fi Version Support form
Copyrights and abuse reports form
Time is now: 20th June 2018 - 05:07:42