Welcome Guest ( Log In | Register )

> Bad Voodoo - Dawn Of Chaos (2017), Heavy Metal
post Nov 13 2017, 21:03:59
Post #1

MDM-Thrash Metal
**************
Group: Металариец
Posts: 6,801
Releases: 412
From: Одесса
On Forums: 10 years 10 months
Thanks: 12957 time(s)
Ukraine


(IMG:http://metalarea.org/images/audiocovers/2017_Nov/acov_tid297772_thumb.jpg)

*Artist: Bad Voodoo
*Album: Dawn Of Chaos
*Year: 2017
*Genre: Heavy Metal
*Country: Mexico (IMG:http://metalarea.org/forum/style_images/flags/Mexico.png)
*Format: mp3@CBR320kbps
*Size: 80MB

Tracklist:
1. Neverendingmare 05:13
2. Beast Inside 05:39
3. Deviate 06:39
4. Interlude 02:16
5. Inner Madness 05:01
6. In Absentia 03:52
7. Vengeance to Prevail 06:21
******************************
Total playing time: 35:01



(IMG:http://metalarea.org/images/youtube.png)

Technical info
(IMG:http://metalarea.org/images/spectrogram/2017_Nov/de7273f0874dc152808d4abec4c2d426.png)
Input File: 05_bad_voodoo_inner_madness.mp3
Channels : 2
Sample Rate : 44100
Precision : 16-bit
Duration : 00:05:01.95 = 13316171 samples = 22646.5 CDDA sectors
File Size : 12.1M
Bit Rate : 320k
Sample Encoding: MPEG audio (layer I, II or III)
Comments :
Title=Inner Madness
Artist=Bad Voodoo
Album=Dawn of Chaos
Tracknumber=5/7
Year=2017
Genre=9



Register


Go to the top of the page
  Insert nick Quick quote
+Quote Post
 
Start new topic
Replies (1 - 1)
post Nov 19 2017, 17:02:24
Post #2

Перевозчик
**************
Group: Металариец
Posts: 2,726
Releases: 0
On Forums: 9 years 11 months
Thanks: 545 time(s)
Russian Federation


Пока не запел, немного шансов оставалось.
Go to the top of the page
  Insert nick Quick quote
+Quote Post

Reply to this topicStart new topic
1 User(s) are reading this topic (1 Guests and 0 Anonymous Users)
0 Members:

 



- Lo-Fi Version Support form
Copyrights and abuse reports form
Time is now: 20th June 2018 - 20:03:07