Welcome Guest ( Log In | Register )

> White Dream - Brave (2017), Heavy Metal/Hard Rock
post Nov 13 2017, 21:19:19
Post #1

MDM-Thrash Metal
**************
Group: Металариец
Posts: 7,061
Releases: 412
From: Одесса
On Forums: 11 years 1 month
Thanks: 13436 time(s)
Ukraine


(IMG:http://metalarea.org/images/audiocovers/2017_Nov/acov_tid297773_thumb.jpg)

*Artist: White Dream
*Album: Brave
*Year: 2017
*Genre: Heavy Metal/Hard Rock
*Country: Mexico (IMG:http://metalarea.org/forum/style_images/flags/Mexico.png)
*Format: mp3@CBR320kbps
*Size: 118MB

Tracklist:
1. Free Myself 05:00
2. Evolution 04:38
3. Injustice 04:19
4. Childhood 05:30
5. Magic Tale 04:09
6. Black Mirror 04:57
7. Brave 05:24
8. Deception 05:59
9. War 05:30
10. White Dream 05:16
******************************
Total playing time: 50:42


(IMG:http://metalarea.org/images/youtube.png)
(IMG:http://metalarea.org/images/youtube.png)


Technical info
(IMG:http://metalarea.org/images/spectrogram/2017_Nov/60a0431bb184fb5a71c224215c0e827b.png)
Input File: 01_white_dream_free_myself.mp3
Channels : 2
Sample Rate : 44100
Precision : 16-bit
Duration : 00:05:00.73 = 13262105 samples = 22554.6 CDDA sectors
File Size : 12.2M
Bit Rate : 325k
Sample Encoding: MPEG audio (layer I, II or III)
Comments :
Title=Free Myself
Artist=White Dream
Album=Brave
Tracknumber=1/10
Year=2017
Genre=Heavy Metal
Discnumber=1/1



Register


Thanks:
Go to the top of the page
  Insert nick Quick quote
+Quote Post
 
Start new topic
Replies (1 - 1)
post Nov 19 2017, 17:21:33
Post #2

Перевозчик
**************
Group: Металариец
Posts: 2,757
Releases: 0
On Forums: 10 years 2 months
Thanks: 573 time(s)
Russian Federation


Фемейл фронтед, если чо. Но внимания особого не заслуживает, крайне слабо.
Go to the top of the page
  Insert nick Quick quote
+Quote Post

Reply to this topicStart new topic
1 User(s) are reading this topic (1 Guests and 0 Anonymous Users)
0 Members:

 



- Lo-Fi Version Support form
Copyrights and abuse reports form
Time is now: 19th September 2018 - 13:30:14