Welcome Guest ( Log In | Register )

> Ocularis Infernum - Expired Utopia (2017), Symphonic Black/Death Metal (D4)
post Nov 13 2017, 21:22:26
Post #1

Аннигилятор пивА
Group Icon
Group: V.I.P
Posts: 45,782
Releases: 13668
From: Koenigsberg - TILZIT
On Forums: 11 years 8 months
Thanks: 302467 time(s)
Russian Federation


(IMG:https://metalarea.org/images/audiocovers/2017_Nov/acov_tid297774_thumb.jpg)

*Artist: Ocularis Infernum
*Album: Expired Utopia
*Year: 2017
*Genre: Symphonic Black/Death Metal
*Country: Latvia (IMG:https://metalarea.org/forum/style_images/flags/Latvia.png)
*Format: mp3@CBR320kbps
*Size: 108MB

Tracklist:
01. I 03:06
02. A Confession Of Defeat 05:27
03. II 01:44
04. Akathisia 04:37
05. III 01:47
06. Illusionist And Scissorman 07:20
07. IV 02:28
08. Escape To The Cul-De-Sac 06:03
09. V 01:56
10. Pretending Sanity 04:11
11. VI 02:40
12. Lost Forest 05:44
13. VII 02:13
******************************
Total playing time: 49:16




Extended info
кодек Gogo




Technical info
(IMG:https://metalarea.org/images/spectrogram/2017_Nov/4ce1aefe1a8003a8621d437ea926fbd3.png)
Input File: 4 Akathisia.mp3
Channels : 2
Sample Rate : 44100
Precision : 16-bit
Duration : 00:04:37.40 = 12233208 samples = 20804.8 CDDA sectors
File Size : 11.2M
Bit Rate : 322k
Sample Encoding: MPEG audio (layer I, II or III)
Comments :
Title=Akathisia
Artist=Ocularis Infernum
Album=Expired Utopia
Tracknumber=4/13
Year=2017
Genre=9
Discnumber=1/1



Register


Вернуться к началу страницы
  Insert nick Quick quote
+Цитировать сообщение
 
Создать новую тему
Replies (1 - 2)
post Jan 8 2018, 09:28:20
Post #2

Quaerite Lux in Tenebris
**********
Group: Металариец
Posts: 1,123
Releases: 14
From: Micsődőllő
On Forums: 7 years 7 months
Thanks: 1779 time(s)
Unknown


Линк из сети / 320 k:
Register


Thanks:
Вернуться к началу страницы
  Insert nick Quick quote
+Цитировать сообщение
post Jan 12 2018, 07:05:15
Post #3

i listen to black metal
**************
Group: Металариец
Posts: 2,119
Releases: 128
From: Москва-Лианозово
On Forums: 11 years 2 months
Thanks: 1969 time(s)
Russian Federation


норм команда и баба хорошо скрипит)))
Вернуться к началу страницы
  Insert nick Quick quote
+Цитировать сообщение

ОтветитьСоздать новую тему
1 User(s) are reading this topic (1 Guests and 0 Anonymous Users)
0 Members:

 



- Lo-Fi Version Support form
Copyrights and abuse reports form
Time is now: 24th February 2018 - 05:31:34