Welcome Guest ( Log In | Register )

> The Predecessors - Rot [ep] (2017), Technical/Progressive Death Metal
post Nov 13 2017, 21:47:53
Post #1

Аннигилятор пивА
Group Icon
Group: V.I.P
Posts: 46,815
Releases: 14061
From: Koenigsberg - TILZIT
On Forums: 12 years 3 weeks
Thanks: 312000 time(s)
Russian Federation


(IMG:https://metalarea.org/images/audiocovers/2017_Nov/acov_tid297775_thumb.jpg)

*Artist: The Predecessors
*Album: Rot [ep]
*Year: 2017
*Genre: Technical/Progressive Death Metal
*Country: United Kingdom (IMG:https://metalarea.org/forum/style_images/flags/United%20Kingdom.png)
*Format: mp3@CBR320kbps
*Size: 70MB

Tracklist:
1. Va'esse Deireádh Aep Eigean 02:16
2. Graveyard of Giants 05:06
3. Godless 06:11
4. Hellbringer 05:32
5. Ekimmara 03:38
6. Poet 06:15
******************************
Total playing time: 28:58




Extended info
ФЛАК-РИП
На мой взгляд ОРИЕНТИР некая смесь из СИЛ(Strapping Young Lad) и современного Дикапитейтед
Band:
NS |
JE |
NM |
DS |
SK |
RT


Technical info
(IMG:https://metalarea.org/images/spectrogram/2017_Nov/592f9e0641e6c878e68a8fe609716d54.png)
Input File: The Predecessors - Rot - 02 Graveyard of Giants.mp3
Channels : 2
Sample Rate : 44100
Precision : 16-bit
Duration : 00:05:06.11 = 13499231 samples = 22957.9 CDDA sectors
File Size : 12.4M
Bit Rate : 325k
Sample Encoding: MPEG audio (layer I, II or III)
Comments :
Title=Graveyard of Giants
Artist=The Predecessors
Album=Rot
Tracknumber=2
Year=2017



Register


Go to the top of the page
  Insert nick Quick quote
+Quote Post
 
Start new topic
Replies (1 - 2)
post Nov 14 2017, 10:35:09
Post #2

Два Литра
**
Group: Завсегдатай
Posts: 170
Releases: 3
On Forums: 2 years 1 week
Thanks: 72 time(s)
Russian Federation


Прог металкор...
Go to the top of the page
  Insert nick Quick quote
+Quote Post
post Nov 20 2017, 17:05:18
Post #3

Четыре Литра
****
Group: Металариец
Posts: 381
Releases: 0
On Forums: 11 years 5 months
Thanks: 48 time(s)
Russian Federation


Маткор с клавишными пассажами....Хрень кароч
Go to the top of the page
  Insert nick Quick quote
+Quote Post

Reply to this topicStart new topic
1 User(s) are reading this topic (1 Guests and 0 Anonymous Users)
0 Members:

 



- Lo-Fi Version Support form
Copyrights and abuse reports form
Time is now: 20th June 2018 - 20:00:54