Welcome Guest ( Log In | Register )

> Luz Negra - Inside The Hive (2017), Heavy/Power Metal
post Nov 13 2017, 21:54:12
Post #1

MDM-Thrash Metal
**************
Group: Металариец
Posts: 6,801
Releases: 412
From: Одесса
On Forums: 10 years 10 months
Thanks: 12957 time(s)
Ukraine


(IMG:http://metalarea.org/images/audiocovers/2017_Nov/acov_tid297776_thumb.jpg)

*Artist: Luz Negra
*Album: Inside The Hive
*Year: 2017
*Genre: Heavy/Power Metal
*Country: Spain (IMG:http://metalarea.org/forum/style_images/flags/Spain.png)
*Format: mp3@CBR320kbps
*Size: 121MB

Tracklist:
1. Speed of Calm 06:19
2. Infamous 03:52
3. Dust 04:28
4. G.O.D. 05:04
5. Inside the Hive 05:13
6. All is Lost 04:13
7. Entropy 04:40
8. Memories of Absence 06:21
9. Slagator 04:08
10. Sprint to Nowhere 08:01
******************************
Total playing time: 52:19


(IMG:http://metalarea.org/images/youtube.png)
(IMG:http://metalarea.org/images/youtube.png)

Technical info
(IMG:http://metalarea.org/images/spectrogram/2017_Nov/9aa5c42044d361ea935d0603aaa56de7.png)
Input File: 02_luznegra_infamous.mp3
Channels : 2
Sample Rate : 44100
Precision : 16-bit
Duration : 00:03:52.37 = 10247517 samples = 17427.8 CDDA sectors
File Size : 9.50M
Bit Rate : 327k
Sample Encoding: MPEG audio (layer I, II or III)
Comments :
Title=Infamous
Artist=LuzNegra
Album=Inside the Hive
Tracknumber=2/10
Year=2017



Register


Go to the top of the page
  Insert nick Quick quote
+Quote Post
 
Start new topic
Replies (1 - 1)
post Nov 19 2017, 17:19:08
Post #2

Перевозчик
**************
Group: Металариец
Posts: 2,726
Releases: 0
On Forums: 9 years 11 months
Thanks: 545 time(s)
Russian Federation


Не хэви/павер, а хэви/треш. Что у них на бэндкемпе и написано. Но по материалу - тухляк.
Go to the top of the page
  Insert nick Quick quote
+Quote Post

Reply to this topicStart new topic
1 User(s) are reading this topic (1 Guests and 0 Anonymous Users)
0 Members:

 



- Lo-Fi Version Support form
Copyrights and abuse reports form
Time is now: 20th June 2018 - 19:59:14