Welcome Guest ( Log In | Register )

 
Reply to this topicStart new topic
> Offenbarung - Demo I (Lunar Womb) [demo] (2017), Atmospheric Black Metal/Ambient
post Nov 13 2017, 22:18:10
Post #1

𝕻𝕬𝕹𝕬𝕮𝕰𝕬
******
Group: Металариец
Posts: 603
Releases: 340
On Forums: 6 years 6 months
Thanks: 4796 time(s)
Unknown


(IMG:http://metalarea.org/images/audiocovers/2017_Nov/acov_tid297777_thumb.png)

*Artist: Offenbarung
*Album: Demo I (Lunar Womb) [demo]
*Year: 2017
*Genre: Atmospheric Black Metal/Ambient
*Country: Argentina (IMG:http://metalarea.org/forum/style_images/flags/Argentina.png)
*Format: mp3@CBR320kbps
*Size: 56MB

Tracklist:
1. Lunar Womb (I: Mist Of Revelation, II: Contemplation, III: Trascending The Morningstar) 24:02
******************************
Total playing time: 24:02



Technical info
(IMG:http://metalarea.org/images/spectrogram/2017_Nov/05bf1eec95ce6af054308b3c5ca351e8.png)
Input File: 01 - Lunar Womb (I-Mist Of Revelation, II-Contemplation, III-Trascending The Morningstar).mp3
Channels : 2
Sample Rate : 44100
Precision : 16-bit
Duration : 00:24:02.20 = 63601108 samples = 108165 CDDA sectors
File Size : 57.7M
Bit Rate : 320k
Sample Encoding: MPEG audio (layer I, II or III)
Comments :
Title=Lunar Womb (I:Mist Of Revelation, II:Contemplation, III:Trascending The Morningstar)
Artist=Offenbarung
Album=Demo I (Lunar Womb)
Tracknumber=1
Year=2017
Genre=Atmospheric Black Metal/Ambient



Register


Go to the top of the page
  Insert nick Quick quote
+Quote Post

Reply to this topicStart new topic
1 User(s) are reading this topic (1 Guests and 0 Anonymous Users)
0 Members:

 



- Lo-Fi Version Support form
Copyrights and abuse reports form
Time is now: 12th December 2018 - 03:50:23