Welcome Guest ( Log In | Register )

> Old Wolf - Old Wolf [demo] (2015), Heavy Metal
post Nov 13 2017, 23:32:41
Post #1

Правь статус, ####!616
**************
Group: Металариец
Posts: 4,404
Releases: 3004
From: 55°35’N 38°08’E
On Forums: 10 years 2 months
Thanks: 56492 time(s)
Unknown


(IMG:http://metalarea.org/images/audiocovers/2017_Nov/acov_tid297778_thumb.jpg)

*Artist: Old Wolf
*Album: Old Wolf [demo]
*Year: 2015
*Genre: Heavy Metal
*Country: United States (IMG:http://metalarea.org/forum/style_images/flags/United%20States.png)
*Format: mp3@CBR320kbps
*Size: 37MB

Tracklist:
1.Old Wolf 04:13
2.Trail of Tears 04:43
3.Your Keeper 06:28
******************************
Total playing time: 15:24




Technical info
(IMG:http://metalarea.org/images/spectrogram/2017_Nov/c1cde82977b5ff70e19748be38f84485.png)
Input File: 01 Old Wolf.mp3
Channels : 2
Sample Rate : 44100
Precision : 16-bit
Duration : 00:04:13.47 = 11177851 samples = 19010 CDDA sectors
File Size : 10.2M
Bit Rate : 323k
Sample Encoding: MPEG audio (layer I, II or III)
Comments :
Title=Old Wolf
Artist=Old Wolf
Album=Old Wolf
Tracknumber=1
Year=2015
Genre=Heavy Metal



Register


Go to the top of the page
  Insert nick Quick quote
+Quote Post
 
Start new topic
Replies (1 - 1)
post Nov 19 2017, 17:16:58
Post #2

Перевозчик
**************
Group: Металариец
Posts: 2,757
Releases: 0
On Forums: 10 years 2 months
Thanks: 573 time(s)
Russian Federation


Как-то по-любительски звучит, но олдскул неплохой.


Thanks:
(1) Storky,
Go to the top of the page
  Insert nick Quick quote
+Quote Post

Reply to this topicStart new topic
1 User(s) are reading this topic (1 Guests and 0 Anonymous Users)
0 Members:

 



- Lo-Fi Version Support form
Copyrights and abuse reports form
Time is now: 19th September 2018 - 14:53:16