Welcome Guest ( Log In | Register )

 
ОтветитьСоздать новую тему
> Tormentium & Cult Of Unholy Shadows - O Lorde In Thee I Trust [split] (2012), Black Metal | Black Metal (D4)
post Nov 13 2017, 23:47:31
Post #1

Angel Eviscerator
**************
Group: Металариец
Posts: 4,013
Releases: 2690
From: 55°35’N 38°08’E
On Forums: 9 years 7 months
Thanks: 51412 time(s)
Russian Federation


(IMG:http://metalarea.org/images/audiocovers/2017_Nov/acov_tid297779_thumb.jpg)

*Artist: Tormentium & Cult Of Unholy Shadows
*Album: O Lorde In Thee I Trust [split]
*Year: 2012
*Genre: Black Metal | Black Metal
*Country: United States (IMG:http://metalarea.org/forum/style_images/flags/United%20States.png) | United States (IMG:http://metalarea.org/forum/style_images/flags/United%20States.png)
*Format: mp3@CBR320kbps
*Size: 68MB

Tracklist:
Tormentium:
1.Timeless Abyssal 07:44
2.Apostasy Shall Be Law 08:24
Cult Of Unholy Shadows:
3.Journey Through Darkness 05:32
4.Spreading Destruction 07:56
******************************
Total playing time: 29:36




Technical info
(IMG:http://metalarea.org/images/spectrogram/2017_Nov/e0579f8a842a78eef7d0059b88fd2973.png)
Input File: 01 Tormentium - Timeless Abyssal.mp3
Channels : 2
Sample Rate : 44100
Precision : 16-bit
Duration : 00:07:44.16 = 20469632 samples = 34812.3 CDDA sectors
File Size : 18.7M
Bit Rate : 322k
Sample Encoding: MPEG audio (layer I, II or III)
Comments :
Title=Timeless Abyssal
Artist=Tormentium
Album=O Lorde In Thee I Trust
Tracknumber=1
Year=2012
Genre=Black Metal



Register


Вернуться к началу страницы
  Insert nick Quick quote
+Цитировать сообщение

ОтветитьСоздать новую тему
1 User(s) are reading this topic (1 Guests and 0 Anonymous Users)
0 Members:

 



- Lo-Fi Version Support form
Copyrights and abuse reports form
Time is now: 23rd February 2018 - 03:52:26