Welcome Guest ( Log In | Register )

 
Reply to this topicStart new topic
> Furens - Furens (1996), Groove Metal/Hardcore
post Nov 14 2017, 00:23:56
Post #1

People = Shit
**************
Group: Металариец
Posts: 7,181
Releases: 420
From: Беларусь, Минск
On Forums: 5 years 11 months
Thanks: 6398 time(s)
Belarus


(IMG:https://metalarea.org/images/audiocovers/2017_Nov/acov_tid297780_thumb.JPG)

*Artist: Furens
*Album: Furens [demo]
*Year: 1996
*Genre: Groove Metal/Hardcore
*Country: Mexico (IMG:https://metalarea.org/forum/style_images/flags/Mexico.png)
*Format: mp3@CBR320kbps
*Size: 27MB

Tracklist:
01. Not A Traditional Man 1:53
02. My Behavior 1:21
03. The Black Days 1:23
04. Obligate 2:34
05. Madness 1:48
06. No Questions 1:25
07. I Cry By Myself 1:48
******************************
Total playing time: 12:12

Technical info
(IMG:https://metalarea.org/images/spectrogram/2017_Nov/f67b386e956dd79a0c6d83064d08f672.png)
Input File: 01 Not A Traditional Man.mp3
Channels : 2
Sample Rate : 44100
Precision : 16-bit
Duration : 00:01:53.31 = 4996795 samples = 8497.95 CDDA sectors
File Size : 4.54M
Bit Rate : 320k
Sample Encoding: MPEG audio (layer I, II or III)



Register


Thanks:
Go to the top of the page
  Insert nick Quick quote
+Quote Post

Reply to this topicStart new topic
1 User(s) are reading this topic (1 Guests and 0 Anonymous Users)
0 Members:

 



- Lo-Fi Version Support form
Copyrights and abuse reports form
Time is now: 14th August 2018 - 09:21:37