Welcome Guest ( Log In | Register )

 
Reply to this topicStart new topic
> Loud Night - Loud Night [demo] (2017), Speed/Heavy Metal/Punk
post Nov 14 2017, 01:46:47
Post #1

Правь статус, ####!616
**************
Group: Металариец
Posts: 4,398
Releases: 3004
From: 55°35’N 38°08’E
On Forums: 10 years 1 month
Thanks: 56343 time(s)
Unknown


(IMG:http://metalarea.org/images/audiocovers/2017_Nov/acov_tid297782_thumb.jpg)

*Artist: Loud Night
*Album: Loud Night [demo]
*Year: 2017
*Genre: Speed/Heavy Metal/Punk
*Country: United States (IMG:http://metalarea.org/forum/style_images/flags/United%20States.png)
*Format: mp3@CBR320kbps
*Size: 31MB

Tracklist:
1.Conventional Destruction 02:04
2.Armored Column 02:33
3.Punished 02:36
4.Loud Night 03:22
5.Take Sides 02:40
******************************
Total playing time: 13:15




Extended info
Cassette, War Fever Recordings (Limited to 100 copies.)


Technical info
(IMG:http://metalarea.org/images/spectrogram/2017_Nov/a17eef1fd79aa6241e3f7a8450d08d72.png)
Input File: 01 Conventional Destruction.mp3
Channels : 2
Sample Rate : 44100
Precision : 16-bit
Duration : 00:02:04.12 = 5473780 samples = 9309.15 CDDA sectors
File Size : 5.11M
Bit Rate : 329k
Sample Encoding: MPEG audio (layer I, II or III)
Comments :
Title=Conventional Destruction
Artist=Loud Night
Album=LOUD NIGHT
Tracknumber=1
Year=2017
Genre=Metal



Register


Thanks:
Go to the top of the page
  Insert nick Quick quote
+Quote Post

Reply to this topicStart new topic
1 User(s) are reading this topic (1 Guests and 0 Anonymous Users)
0 Members:

 



- Lo-Fi Version Support form
Copyrights and abuse reports form
Time is now: 14th August 2018 - 09:21:45