Welcome Guest ( Log In | Register )

 
ОтветитьСоздать новую тему
> Azziard - Disruption [ep] (2017), Black Metal (D5)
post Nov 14 2017, 04:22:53
Post #1

Satan Soldier
**************
Group: Металариец
Posts: 2,240
Releases: 605
From: IN HELL
On Forums: 5 years 4 months
Thanks: 12895 time(s)
France


(IMG:http://metalarea.org/images/audiocovers/2017_Nov/acov_tid297784_thumb.jpg)

*Artist: Azziard
*Album: Disruption [ep]
*Year: 2017
*Genre: Black Metal
*Country: France (IMG:http://metalarea.org/forum/style_images/flags/France.png)
*Format: mp3@CBR320kbps
*Size: 70MB

Tracklist:
1.L'Enfer - Extract from "Metempsychose" new album 06:03
2.L'Anachorète, Dies - Extract from "Metempsychose" new album 06:00
3.Undus Mundus - EP version 05:42
4.Disjonction - Extract from "Vésanie" album 05:39
5.Rebellion - Extract from "1916" album 06:26
******************************
Total playing time: 29:50




Technical info
(IMG:http://metalarea.org/images/spectrogram/2017_Nov/b5f919e49f4ed624d79ed094205d4802.png)
Input File: 01 L\'Enfer - Extract from -Metempsychose- new album.mp3
Channels : 2
Sample Rate : 44100
Precision : 16-bit
Duration : 00:06:03.63 = 16036171 samples = 27272.4 CDDA sectors
File Size : 14.6M
Bit Rate : 321k
Sample Encoding: MPEG audio (layer I, II or III)
Comments :
Title=L'Enfer - Extract from "Metempsychose" new album
Artist=AZZIARD
Album=Disruption
Tracknumber=1
Year=2017



Register


Вернуться к началу страницы
  Insert nick Quick quote
+Цитировать сообщение

ОтветитьСоздать новую тему
1 User(s) are reading this topic (1 Guests and 0 Anonymous Users)
0 Members:

 



- Lo-Fi Version Support form
Copyrights and abuse reports form
Time is now: 24th May 2018 - 22:46:18