Welcome Guest ( Log In | Register )

> Crusty Old Toad - Turn People Into Food (2017), Blackened Heavy Metal
post Nov 14 2017, 07:39:44
Post #1

Аннигилятор пивА
Group Icon
Group: V.I.P
Posts: 45,709
Releases: 13648
From: Koenigsberg - TILZIT
On Forums: 11 years 8 months
Thanks: 302060 time(s)
Russian Federation


(IMG:https://metalarea.org/images/audiocovers/2017_Nov/acov_tid297792_thumb.jpg)

*Artist: Crusty Old Toad
*Album: Turn People Into Food
*Year: 2017
*Genre: Blackened Heavy Metal
*Country: United States (IMG:https://metalarea.org/forum/style_images/flags/United%20States.png)
*Format: mp3@CBR320kbps
*Size: 84MB

Tracklist:
01. AutoBate-4000 03:46
02. Ghost Pussy 02:50
03. Turn People Into Food 04:24
04. Edge Of The Forest 02:51
05. Another Day Above Ground 04:10
06. Shadow In The Water 03:25
07. Crystal Ball 02:44
08. I Turned Into A Human 03:13
09. The Countess Of Castle Dildor 03:49
10. Frozen Inside 04:00
******************************
Total playing time: 35:12




Extended info


Technical info
(IMG:https://metalarea.org/images/spectrogram/2017_Nov/5071981236be3412577c8e8fa4adfaed.png)
Input File: Crusty Old Toad - Turn People Into Food - 02 Ghost Pussy.mp3
Channels : 2
Sample Rate : 44100
Precision : 16-bit
Duration : 00:02:50.07 = 7500219 samples = 12755.5 CDDA sectors
File Size : 7.03M
Bit Rate : 331k
Sample Encoding: MPEG audio (layer I, II or III)
Comments :
Title=Ghost Pussy
Artist=Crusty Old Toad
Album=Turn People Into Food
Tracknumber=2
Year=2017



Register


Вернуться к началу страницы
  Insert nick Quick quote
+Цитировать сообщение
 
Создать новую тему
Replies (1 - 2)
post Nov 14 2017, 12:29:11
Post #2

\m/
Group Icon
Group: S-moderation team
Posts: 7,340
Releases: 19
From: Петропавловск-Камчатский
On Forums: 8 years 8 months
Thanks: 6488 time(s)
Russian Federation


Шедевральный клип снятый на айфон (IMG:style_emoticons/default/crazy.gif)
Вернуться к началу страницы
  Insert nick Quick quote
+Цитировать сообщение
post Nov 14 2017, 13:02:29
Post #3

Group: Подсевший
Posts: 11
Releases: 0
From: Минск
On Forums: 1 year 8 months
Thanks: 1 time(s)
Belarus


Какой айфон, максимум ZTE. А клип гениален своим дебилизмом... Это да. )))
Вернуться к началу страницы
  Insert nick Quick quote
+Цитировать сообщение

ОтветитьСоздать новую тему
1 User(s) are reading this topic (1 Guests and 0 Anonymous Users)
0 Members:

 



- Lo-Fi Version Support form
Copyrights and abuse reports form
Time is now: 19th February 2018 - 03:25:16