Welcome Guest ( Log In | Register )

> Bark - Like Humans Do (2017), Groove Metal/Death 'n' Roll (D4)
post Nov 14 2017, 09:39:50
Post #1

Group: Подсевший
Posts: 81
Releases: 45
On Forums: 5 years 6 months
Thanks: 1022 time(s)


*Artist: Bark
*Album: Like Humans Do
*Year: 2017
*Genre: Groove Metal/Death 'n' Roll
*Country: Belgium (IMG:http://metalarea.org/forum/style_images/flags/Belgium.png)
*Format: mp3@CBR320kbps
*Size: 94MB

1.It's All In Your Head
3.Last Man Standing
4.Hollow Words
5.Cannibal Law
6.My Heart Is A Bone
7.Like Humans Do
8.A Tribute To San La Muerte
9.Freedom To Hate
10.Wild Thing
11.Dog Life
12.No Shelter
13.Speak To The Dead
Total playing time: 36:21

Preview 1

Technical info
Input File: 01 - It\'s All In Your Head.mp3
Channels : 2
Sample Rate : 44100
Precision : 16-bit
Duration : 00:01:59.46 = 5268318 samples = 8959.72 CDDA sectors
File Size : 5.65M
Bit Rate : 378k
Sample Encoding: MPEG audio (layer I, II or III)
Comments :
Title=It's All In Your Head
Album=Like Humans Do


Вернуться к началу страницы
  Insert nick Quick quote
+Цитировать сообщение
Создать новую тему
Replies (1 - 1)
post Nov 20 2017, 16:58:57
Post #2

Четыре Литра
Group: Металариец
Posts: 364
Releases: 0
On Forums: 11 years 2 months
Thanks: 47 time(s)
Russian Federation

Похоже на Сепультуру времен Кайоваса или любого другого безидейного проходного альбома, с вокалистом с манерой пения как у Gorefest.
Вернуться к началу страницы
  Insert nick Quick quote
+Цитировать сообщение

ОтветитьСоздать новую тему
2 User(s) are reading this topic (2 Guests and 0 Anonymous Users)
0 Members:


- Lo-Fi Version Support form
Copyrights and abuse reports form
Time is now: 20th March 2018 - 11:04:30