Welcome Guest ( Log In | Register )

> Pesterous Mind - Infinite Abyss (2017), Deathcore/Death Metal
post Nov 14 2017, 09:45:37
Post #1

Литр
*
Group: Подсевший
Posts: 82
Releases: 45
On Forums: 5 years 11 months
Thanks: 1048 time(s)
Unknown


(IMG:http://metalarea.org/images/audiocovers/2017_Nov/acov_tid297795_thumb.jpg)

*Artist: Pesterous Mind
*Album: Infinite Abyss
*Year: 2017
*Genre: Deathcore/Death Metal
*Country: Germany (IMG:http://metalarea.org/forum/style_images/flags/Germany.png)
*Format: mp3@CBR320kbps
*Size: 128MB

Tracklist:
01. Sentenced To Live
02. Until Dawn
03. Idiocracy
04. Don't Let This World Tear You Apart
05. Laboratory Of The Devil
06. Post Nubila Phoebus
07. Inferno
08. Flower Of Flesh And Blood
09. Samhain
10. Infinite Abyss
11. Paragon Of Perfection
12. Obese Atrocity
13. F65
******************************
Total playing time: 54:14



Technical info
(IMG:http://metalarea.org/images/spectrogram/2017_Nov/1cf051acc0c54770fc4b2956f89ff249.png)
Input File: 01 Sentenced To Live.mp3
Channels : 2
Sample Rate : 44100
Precision : 16-bit
Duration : 00:05:51.83 = 15515571 samples = 26387 CDDA sectors
File Size : 14.1M
Bit Rate : 321k
Sample Encoding: MPEG audio (layer I, II or III)
Comments :
Title=Sentenced To Live
Artist=Pesterous Mind
Album=Infinite Abyss
Tracknumber=1
Year=2017
Genre=Metal



Register


Go to the top of the page
  Insert nick Quick quote
+Quote Post
 
Start new topic
Replies (1 - 1)
post Nov 14 2017, 15:08:32
Post #2

тебе 27, а ты все реверсами балуешься
**********
Group: Металариец
Posts: 1,376
Releases: 4
From: SPB
On Forums: 10 years 2 weeks
Thanks: 346 time(s)
Russian Federation


Кстати весьма неплохо, тёмненько, и деткора тут немного.
Go to the top of the page
  Insert nick Quick quote
+Quote Post

Reply to this topicStart new topic
1 User(s) are reading this topic (1 Guests and 0 Anonymous Users)
0 Members:

 



- Lo-Fi Version Support form
Copyrights and abuse reports form
Time is now: 14th August 2018 - 09:22:18