Welcome Guest ( Log In | Register )

 
ОтветитьСоздать новую тему
> Fehora Maei - Don't Let Them See You [ep] (2017), Horror Metal/Metalcore
post Nov 14 2017, 10:14:18
Post #1

Литр
*
Group: Подсевший
Posts: 81
Releases: 45
On Forums: 5 years 8 months
Thanks: 1031 time(s)
Unknown


(IMG:http://metalarea.org/images/audiocovers/2017_Nov/acov_tid297796_thumb.jpg)

*Artist: Fehora Maei
*Album: Don't Let Them See You [ep]
*Year: 2017
*Genre: Horror Metal/Metalcore
*Country: United States (IMG:http://metalarea.org/forum/style_images/flags/United%20States.png)
*Format: mp3@CBR320kbps
*Size: 71MB

Tracklist:
01. Don't Let Them See You
02. Gastric
03. Schitzomaniac
04. Lacerta
05. K.Y.S.
06. 10 56
07. We Were Born in Brimstone
******************************
Total playing time: 31:02




Technical info
(IMG:http://metalarea.org/images/spectrogram/2017_Nov/291c6bda45ef1655670a7c050f33eec7.png)
Input File: 01. Don\'t Let Them See You.mp3
Channels : 2
Sample Rate : 44100
Precision : 16-bit
Duration : 00:00:55.26 = 2436834 samples = 4144.28 CDDA sectors
File Size : 2.27M
Bit Rate : 329k
Sample Encoding: MPEG audio (layer I, II or III)
Comments :
Title=Don't Let Them See You
Artist=Fehora Maei
Album=Don't Let Them See You -
Tracknumber=1/6
Year=2017



Register


Вернуться к началу страницы
  Insert nick Quick quote
+Цитировать сообщение

ОтветитьСоздать новую тему
1 User(s) are reading this topic (1 Guests and 0 Anonymous Users)
0 Members:

 



- Lo-Fi Version Support form
Copyrights and abuse reports form
Time is now: 24th May 2018 - 22:46:11