Welcome Guest ( Log In | Register )

> Imari Tones - Jesus Wind (2017), Heavy Metal
post Nov 14 2017, 10:19:14
Post #1

Литр
*
Group: Подсевший
Posts: 81
Releases: 45
On Forums: 5 years 8 months
Thanks: 1031 time(s)
Unknown


(IMG:http://metalarea.org/images/audiocovers/2017_Nov/acov_tid297797_thumb.jpg)

*Artist: Imari Tones
*Album: Jesus Wind
*Year: 2017
*Genre: Heavy Metal
*Country: Japan (IMG:http://metalarea.org/forum/style_images/flags/Japan.png)
*Format: mp3@CBR320kbps
*Size: 146MB

Tracklist:
01. Jee-You
02. Dying Prophet
03. God's People
04. Saints Seeking Salvation
05. Bushido
06. The War
07. The Peace
08. Remembrance
09. The Wave
10. When The Nation Falls
11. This Is How Freedom Dies
12. Repent
13. Don't Stop Walking
14. Revolution
15. New Jerusalem
******************************
Total playing time: 1:03:23



Technical info
(IMG:http://metalarea.org/images/spectrogram/2017_Nov/a07db64be869f1bf2f10ed9ca88f9511.png)
Input File: 01 - Jee-You.mp3
Channels : 2
Sample Rate : 44100
Precision : 16-bit
Duration : 00:04:56.32 = 13067800 samples = 22224.1 CDDA sectors
File Size : 11.9M
Bit Rate : 322k
Sample Encoding: MPEG audio (layer I, II or III)
Comments :
Title=Jee-You
Artist=Imari Tones
Album=Jesus Wind
Tracknumber=1/15
Year=2017



Register


Вернуться к началу страницы
  Insert nick Quick quote
+Цитировать сообщение
 
Создать новую тему
Replies (1 - 1)
post Nov 19 2017, 17:15:09
Post #2

Перевозчик
**************
Group: Металариец
Posts: 2,697
Releases: 0
On Forums: 9 years 10 months
Thanks: 543 time(s)
Russian Federation


Шляпа - и по звуку, и по исполнению, и по смыслу. Но для японцев прямо шаблоны рвут. (IMG:style_emoticons/default/1488.gif)
Вернуться к началу страницы
  Insert nick Quick quote
+Цитировать сообщение

ОтветитьСоздать новую тему
1 User(s) are reading this topic (1 Guests and 0 Anonymous Users)
0 Members:

 



- Lo-Fi Version Support form
Copyrights and abuse reports form
Time is now: 24th May 2018 - 22:45:49