Welcome Guest ( Log In | Register )

> И неформату есть предел.

Рэп/хип-хоп/шансон/поп удаляются. Для них есть свои порталы.

> Svartsinn - Mørkets Variabler (2017), Dark Ambient (D7)
post Nov 14 2017, 10:30:31
Post #1

As Above, so Below
***********
Group: Металариец
Posts: 1,862
Releases: 17
On Forums: 8 years 9 months
Thanks: 3688 time(s)
Russian Federation


(IMG:http://metalarea.org/images/audiocovers/2017_Nov/acov_tid297798_thumb.jpg)

*Artist: Svartsinn
*Album: Mørkets Variabler
*Year: 2017
*Genre: Dark Ambient
*Country: Norway (IMG:http://metalarea.org/forum/style_images/flags/Norway.png)
*Format: mp3@CBR320kbps
*Size: 136MB

Tracklist:
1. And In This Cloak Of Darkness I Cast My Shadow Short (Ghost Boy) 09:03
2. Doubt As Sin (Nietzsce's Lament) 05:48
3. Echoes Of Silent Cries (Among The Sea Of Trees) 11:03
4. In The Wake Of Azathoth (A Lovecraftian Epilogue) 09:10
5. Yearning Part 2 (Å Kjenne På Ensomheten) 09:00
6. Where No Other Can Follow (Demon Stalker) 08:23
7. Vemod (Cello Mix) 11:23
******************************
Total playing time: 1:03:50



Extended info
Now 8 years since the last full length for Cyclic Law, Norway’s Svartsinn returns with a new opus, reaffirming his place as one of the world’s premiere Dark Ambient acts. For this album Jan Roger Pettersen is accompanied on some tracks by fellow Norwegian Amund Ulvestad on Cello, providing new elements to Svartsinn’s distinct ominous drones. "Mørkets Variabler" translates to "Variables Of Darkness" and it is a certain combination of such variables that fuels the urges and need to create the atmospheres translating as Svartsinn. Darkness comes in various shapes and forms and through these new pieces we are plunged into this vast and singular subject, left to our senses to explore it’s subtle meanings and impressions left within ourselves. Presented in a unique Limited Edition Hardcover Digibook as well as a Limited Gatefold Double vinyl.
Cyclic Law.


Technical info
(IMG:http://metalarea.org/images/spectrogram/2017_Nov/b9060c163a4e9e8b91fcf7c2ef266ef3.png)
Input File: 01 - And in This Cloak of Darkness I Cast My Shadow Short (Ghost Boy).mp3
Channels : 2
Sample Rate : 44100
Precision : 16-bit
Duration : 00:09:03.22 = 23955914 samples = 40741.4 CDDA sectors
File Size : 21.8M
Bit Rate : 321k
Sample Encoding: MPEG audio (layer I, II or III)
Comments :
Title=And in This Cloak of Darkness I Cast My Shadow Short (Ghost Boy)
Artist=Svartsinn
Album=MГёrkets Variabler
Tracknumber=1
Year=2017
Genre=Dark Ambient



Register


Go to the top of the page
  Insert nick Quick quote
+Quote Post
 
Start new topic
Replies (1 - 8)
post Nov 14 2017, 12:42:13
Post #2

WINTER
******
Group: Металариец
Posts: 652
Releases: 51
On Forums: 10 years 5 months
Thanks: 1397 time(s)
Russian Federation


northaunt, svartsinn... на очереди kammarheit?)
Go to the top of the page
  Insert nick Quick quote
+Quote Post
post Nov 14 2017, 14:06:55
Post #3

As Above, so Below
***********
Group: Металариец
Posts: 1,862
Releases: 17
On Forums: 8 years 9 months
Thanks: 3688 time(s)
Russian Federation


ЦИТАТА(Forest Silence @ Nov 14 2017, 14:42:13) *
northaunt, svartsinn... на очереди kammarheit?)

Не совсем, но автор Pär Boström.
Go to the top of the page
  Insert nick Quick quote
+Quote Post
post Nov 14 2017, 14:10:41
Post #4
BAN
Banned till
Nov 2 2018, 12:28:53



Elend жду, хоть это и не дарк эмбиент.
Go to the top of the page
  Insert nick Quick quote
+Quote Post
post Nov 14 2017, 15:50:46
Post #5

Русь Понад Усе!
**************
Group: Металариец
Posts: 4,056
Releases: 15
From: Украина
On Forums: 11 years 2 weeks
Thanks: 1562 time(s)
Ukraine


Залейте плиз на какой нибудь из этих обменников.

rgho.st
sampo.ru
mega.nz


а то у меня не скачивает, а слюна уже выделяется (IMG:style_emoticons/default/smile1.gif) . Недавно приобрёл себе два альбома Northaunt, новый пока не достал но думаю надо двигаться в этом направлении. Svartsinn это не менее крутой проект надо то же диск приобретать (IMG:style_emoticons/default/smile1.gif)
Go to the top of the page
  Insert nick Quick quote
+Quote Post
post Nov 14 2017, 19:02:16
Post #6

As Above, so Below
***********
Group: Металариец
Posts: 1,862
Releases: 17
On Forums: 8 years 9 months
Thanks: 3688 time(s)
Russian Federation


Register


ЦИТАТА(recber @ Nov 14 2017, 17:50:46) *
новый пока не достал но думаю надо двигаться в этом направлении.

Если ты о "Night Paths", то это изданный самим музыкантом лимитированный CD-r.


Thanks:
Go to the top of the page
  Insert nick Quick quote
+Quote Post
post Nov 15 2017, 02:28:08
Post #7

Два Литра
**
Group: Завсегдатай
Posts: 132
Releases: 0
On Forums: 11 years 10 months
Thanks: 5 time(s)
Russian Federation


ЦИТАТА(6666666 @ Nov 14 2017, 17:10:41) *
Elend жду, хоть это и не дарк эмбиент.

А есть смысл ждать? Они же вроде бы давно прекратили существование. Я бы конечно тоже не прочь услышать от них чего-то нового.
Go to the top of the page
  Insert nick Quick quote
+Quote Post
post Nov 15 2017, 16:38:22
Post #8

Русь Понад Усе!
**************
Group: Металариец
Posts: 4,056
Releases: 15
From: Украина
On Forums: 11 years 2 weeks
Thanks: 1562 time(s)
Ukraine


Очень хорошая работа, отличный липкий тёмный эмбиент !!!
Go to the top of the page
  Insert nick Quick quote
+Quote Post
post Nov 15 2017, 16:49:37
Post #9
BAN
Banned till
Nov 2 2018, 12:28:53



ЦИТАТА(sid82 @ 15th November 2017 - 04:28:08) *
А есть смысл ждать?

Как ни странно, есть. Они там что-то мутят, судя по всему.
Go to the top of the page
  Insert nick Quick quote
+Quote Post

Reply to this topicStart new topic
1 User(s) are reading this topic (1 Guests and 0 Anonymous Users)
0 Members:

 



- Lo-Fi Version Support form
Copyrights and abuse reports form
Time is now: 19th September 2018 - 11:35:08