Welcome Guest ( Log In | Register )

> À L'Ombre D'Héméra - Le Mur Des Ombres (2017), Post-Metal
post Nov 14 2017, 10:42:33
Post #1

Литр
*
Group: Подсевший
Posts: 83
Releases: 45
On Forums: 6 years 1 month
Thanks: 1069 time(s)
Unknown


(IMG:http://metalarea.org/images/audiocovers/2017_Nov/acov_tid297799_thumb.png)

*Artist: À L'Ombre D'Héméra
*Album: Le Mur Des Ombres
*Year: 2017
*Genre: Post-Metal
*Country: Canada (IMG:http://metalarea.org/forum/style_images/flags/Canada.png)
*Format: mp3@CBR320kbps
*Size: 88MB

Tracklist:
01. Acte 1: La Ville
02. Acte 2: L'éveil
03. Acte 3: La Peur
04. Acte 4: La Condamnation
05. Acte 5: Savoir
06. Acte 6: La Confusion
******************************
Total playing time: 35:46




Technical info
(IMG:http://metalarea.org/images/spectrogram/2017_Nov/8322de8ceeb86e6a6ff47d4c5d8cc4c8.png)
Input File: 01 - La Ville.mp3
Channels : 2
Sample Rate : 44100
Precision : 16-bit
Duration : 00:05:30.38 = 14569582 samples = 24778.2 CDDA sectors
File Size : 14.2M
Bit Rate : 344k
Sample Encoding: MPEG audio (layer I, II or III)
Comments :
Title=La Ville
Artist=ГЂ l'Ombre d'HГ©mГ©ra
Album=Le Mur Des Ombres
Tracknumber=1/6
Year=2017
Genre=Metal



Register


Go to the top of the page
  Insert nick Quick quote
+Quote Post
 
Start new topic
Replies (1 - 3)
post Nov 14 2017, 17:05:17
Post #2

Dark Ambient Shoujo
**********
Group: Металариец
Posts: 1,021
Releases: 1
On Forums: 9 years 9 months
Thanks: 508 time(s)
Russian Federation


Вполне форматный музон.
Go to the top of the page
  Insert nick Quick quote
+Quote Post
post Nov 14 2017, 19:50:56
Post #3

Литр
*
Group: Подсевший
Posts: 97
Releases: 0
On Forums: 9 years 6 months
Thanks: 10 time(s)
Russian Federation


то, что надо
Go to the top of the page
  Insert nick Quick quote
+Quote Post
post Jan 12 2018, 07:31:10
Post #4

i listen to black metal
**************
Group: Металариец
Posts: 2,201
Releases: 128
From: Москва-Лианозово
On Forums: 11 years 10 months
Thanks: 2019 time(s)
Russian Federation


а ведь и вправду -приятно!
Go to the top of the page
  Insert nick Quick quote
+Quote Post

Reply to this topicStart new topic
1 User(s) are reading this topic (1 Guests and 0 Anonymous Users)
0 Members:

 



- Lo-Fi Version Support form
Copyrights and abuse reports form
Time is now: 23rd October 2018 - 13:30:31