Welcome Guest ( Log In | Register )

> И неформату есть предел.

Рэп/хип-хоп/шансон/поп удаляются. Для них есть свои порталы.

> Troum - Da​-​Pu​-​Ri​-​To​-​Jo [best of/compilation] (2017), Drone Ambient (D25)
post Nov 14 2017, 10:59:48
Post #1

As Above, so Below
***********
Group: Металариец
Posts: 1,854
Releases: 17
On Forums: 8 years 2 months
Thanks: 3627 time(s)
Russian Federation


(IMG:http://metalarea.org/images/audiocovers/2017_Nov/acov_tid297800_thumb.jpg)

*Artist: Troum
*Album: Da​-​Pu​-​Ri​-​To​-​Jo [best of/compilation]
*Year: 2017
*Genre: Drone Ambient
*Country: Germany (IMG:http://metalarea.org/forum/style_images/flags/Germany.png)
*Format: mp3@CBR320kbps
*Size: 161MB

Tracklist:
1. Aerugo 04:53
2. Aetas Vetus 06:54
3. Agnus Dei 04:34
4. Betonwolke 08:44
5. Das Air 06:16
6. Gruoen 07:01
7. Nargis 08:14
8. Saiws 06:49
9. Segeler 04:15
10. Un / Mahts 06:29
11. Victoria 03:43
12. Unreleased Theme For River Endscene 02:59
******************************
Total playing time: 1:10:51



Extended info
This is a collection of Troum's 7" vinyl releases united by one theme and idea, becoming the album "Da-Pu-Ri-To-Jo". All tracks were full remastered!
Black Mara Records.


Technical info
(IMG:http://metalarea.org/images/spectrogram/2017_Nov/55f2a2c02bcc8fbcf61c99131cebb306.png)
Input File: 01 - Aerugo.mp3
Channels : 2
Sample Rate : 44100
Precision : 16-bit
Duration : 00:04:52.99 = 12920947 samples = 21974.4 CDDA sectors
File Size : 11.8M
Bit Rate : 321k
Sample Encoding: MPEG audio (layer I, II or III)
Comments :
Title=Aerugo
Artist=Troum
Album=Da​-​Pu​-​Ri​-​To​-​Jo
Tracknumber=01/12
Year=2017
Genre=Drone Ambient



Register


Вернуться к началу страницы
  Insert nick Quick quote
+Цитировать сообщение
 
Создать новую тему
Replies (1 - 2)
post Dec 1 2017, 14:04:52
Post #2

Group: Подсевший
Posts: 44
Releases: 0
From: Кривой Рог
On Forums: 6 years 7 months
Thanks: 50 time(s)
Ukraine


Казалось, все это уже слышал и раньше, но как же цепляет (IMG:style_emoticons/default/20.gif)
Вернуться к началу страницы
  Insert nick Quick quote
+Цитировать сообщение
post Jan 26 2018, 11:56:42
Post #3

ashes of yesterdays
**********
Group: Металариец
Posts: 1,047
Releases: 8
On Forums: 10 years 8 months
Thanks: 2580 time(s)
Unknown


Как метко подметил некий юзер на discogs'e: "When other ambient/drone masters just hold a candle, Troum is itself the Sun."
Подписываюсь.
Вернуться к началу страницы
  Insert nick Quick quote
+Цитировать сообщение

ОтветитьСоздать новую тему
1 User(s) are reading this topic (1 Guests and 0 Anonymous Users)
0 Members:

 



- Lo-Fi Version Support form
Copyrights and abuse reports form
Time is now: 23rd February 2018 - 03:56:37