Welcome Guest ( Log In | Register )

 
ОтветитьСоздать новую тему
> Adiatuanos - Ruine (2017), Raw Black Metal
post Nov 14 2017, 13:20:00
Post #1

Angel Eviscerator
**************
Group: Металариец
Posts: 4,005
Releases: 2682
From: 55°35’N 38°08’E
On Forums: 9 years 7 months
Thanks: 51331 time(s)
Russian Federation


(IMG:http://metalarea.org/images/audiocovers/2017_Nov/acov_tid297803_thumb.jpg)

*Artist: Adiatuanos
*Album: Ruine
*Year: 2017
*Genre: Raw Black Metal
*Country: France (IMG:http://metalarea.org/forum/style_images/flags/France.png)
*Format: mp3@CBR320kbps
*Size: 56MB

Tracklist:
1.Intro 00:43
2.I 03:06
3.II 03:13
4.III 01:54
5.IV 04:06
6.V 04:56
7.VI 04:29
8.VII 05:01
******************************
Total playing time: 27:28



Technical info
(IMG:http://metalarea.org/images/spectrogram/2017_Nov/60a938e38b4b4245978351af9094797a.png)
Input File: 02 I.mp3
Channels : 2
Sample Rate : 44100
Precision : 16-bit
Duration : 00:03:06.48 = 8223856 samples = 13986.1 CDDA sectors
File Size : 7.63M
Bit Rate : 327k
Sample Encoding: MPEG audio (layer I, II or III)
Comments :
Title=I
Artist=Adiatuanos
Album=Ruine
Tracknumber=2
Year=2017
Genre=Black Metal



Register


Вернуться к началу страницы
  Insert nick Quick quote
+Цитировать сообщение

ОтветитьСоздать новую тему
1 User(s) are reading this topic (1 Guests and 0 Anonymous Users)
0 Members:

 



- Lo-Fi Version Support form
Copyrights and abuse reports form
Time is now: 19th February 2018 - 03:23:25