Welcome Guest ( Log In | Register )

> Aeon's Child - Aeon's Child (2017), Instrumental/Progressive/Heavy Metal
post Nov 14 2017, 13:29:06
Post #1

Serial Uploader
Group Icon
Group: V.I.P
Posts: 31,387
Releases: 29722
From: Lithuania
On Forums: 9 years 8 months
Thanks: 341476 time(s)
Lithuania


(IMG:http://metalarea.org/images/audiocovers/2017_Nov/acov_tid297804_thumb.jpg)

*Artist: Aeon's Child
*Album: Aeon's Child
*Year: 2017
*Genre: Instrumental/Progressive/Heavy Metal
*Country: United States (IMG:http://metalarea.org/forum/style_images/flags/United%20States.png)
*Format: mp3@CBR320kbps
*Size: 73MB

Tracklist:
01. Damnation Day 03:55
02. Before The Storm 04:03
03. 999 B. C. 03:44
04. EBCD 01:10
05. If Thorns Could Speak 04:54
06. Metal 666 02:34
07. Eye Of The Impending Storm 03:21
08. Libra Assoluta 03:40
09. First Blood 04:22
******************************
Total playing time: 31:43



Technical info
(IMG:http://metalarea.org/images/spectrogram/2017_Nov/3f88bafd330a491818dfa98190c90927.png)
Input File: 02. Before the Storm.mp3
Channels : 2
Sample Rate : 44100
Precision : 16-bit
Duration : 00:04:03.64 = 10744304 samples = 18272.6 CDDA sectors
File Size : 9.88M
Bit Rate : 324k
Sample Encoding: MPEG audio (layer I, II or III)
Comments :
Title=Before the Storm
Artist=Aeon's Child
Album=Aeon's Child
Tracknumber=2/9
Year=2017
Genre=Metal



Register


Вернуться к началу страницы
  Insert nick Quick quote
+Цитировать сообщение
 
Создать новую тему
Replies (1 - 1)
post Nov 14 2017, 16:31:18
Post #2

Четыре Литра
****
Group: Металариец
Posts: 352
Releases: 0
On Forums: 11 years 1 month
Thanks: 45 time(s)
Russian Federation


Просто окуенно!Сначала думал что не помешал бы вокал,потом забыл напрочь про все и не слышал ничего вокруг кроме этого. 10/10

Дайте лося!)
Вернуться к началу страницы
  Insert nick Quick quote
+Цитировать сообщение

ОтветитьСоздать новую тему
1 User(s) are reading this topic (1 Guests and 0 Anonymous Users)
0 Members:

 



- Lo-Fi Version Support form
Copyrights and abuse reports form
Time is now: 19th February 2018 - 03:24:47