Welcome Guest ( Log In | Register )

 
Reply to this topicStart new topic
> Absconder - Cursed Atrocities [demo] (2017), Old School Death Metal
post Nov 14 2017, 13:31:58
Post #1

Правь статус, ####!616
**************
Group: Металариец
Posts: 4,398
Releases: 3004
From: 55°35’N 38°08’E
On Forums: 10 years 1 month
Thanks: 56343 time(s)
Unknown


(IMG:http://metalarea.org/images/audiocovers/2017_Nov/acov_tid297805_thumb.jpg)

*Artist: Absconder
*Album: Cursed Atrocities [demo]
*Year: 2017
*Genre: Old School Death Metal
*Country: United States (IMG:http://metalarea.org/forum/style_images/flags/United%20States.png)
*Format: mp3@CBR320kbps
*Size: 60MB

Tracklist:
1.Ancient Corpse Medicine 03:55
2.Cemetery Crawl 04:37
3.Chaotic Inflictions 03:37
4.Cursed Atrocities 05:30
5.Horrors of Damnation 04:01
6.To the Depths of Insanity 04:09
******************************
Total playing time: 25:49




Technical info
(IMG:http://metalarea.org/images/spectrogram/2017_Nov/18d97fc40dccd790865c980d39160aa7.png)
Input File: 01 Ancient Corpse Medicine.mp3
Channels : 2
Sample Rate : 44100
Precision : 16-bit
Duration : 00:03:55.94 = 10404822 samples = 17695.3 CDDA sectors
File Size : 9.54M
Bit Rate : 324k
Sample Encoding: MPEG audio (layer I, II or III)
Comments :
Title=Ancient Corpse Medicine
Artist=Absconder
Album=Cursed Atrocities Demo
Tracknumber=1
Year=2017
Genre=Death Metal



Register


Go to the top of the page
  Insert nick Quick quote
+Quote Post

Reply to this topicStart new topic
1 User(s) are reading this topic (1 Guests and 0 Anonymous Users)
0 Members:

 



- Lo-Fi Version Support form
Copyrights and abuse reports form
Time is now: 14th August 2018 - 09:22:14