Welcome Guest ( Log In | Register )

 
ОтветитьСоздать новую тему
> Absconder - Cursed Atrocities [demo] (2017), Old School Death Metal
post Nov 14 2017, 13:31:58
Post #1

Angel Eviscerator
**************
Group: Металариец
Posts: 4,005
Releases: 2682
From: 55°35’N 38°08’E
On Forums: 9 years 7 months
Thanks: 51331 time(s)
Russian Federation


(IMG:http://metalarea.org/images/audiocovers/2017_Nov/acov_tid297805_thumb.jpg)

*Artist: Absconder
*Album: Cursed Atrocities [demo]
*Year: 2017
*Genre: Old School Death Metal
*Country: United States (IMG:http://metalarea.org/forum/style_images/flags/United%20States.png)
*Format: mp3@CBR320kbps
*Size: 60MB

Tracklist:
1.Ancient Corpse Medicine 03:55
2.Cemetery Crawl 04:37
3.Chaotic Inflictions 03:37
4.Cursed Atrocities 05:30
5.Horrors of Damnation 04:01
6.To the Depths of Insanity 04:09
******************************
Total playing time: 25:49




Technical info
(IMG:http://metalarea.org/images/spectrogram/2017_Nov/18d97fc40dccd790865c980d39160aa7.png)
Input File: 01 Ancient Corpse Medicine.mp3
Channels : 2
Sample Rate : 44100
Precision : 16-bit
Duration : 00:03:55.94 = 10404822 samples = 17695.3 CDDA sectors
File Size : 9.54M
Bit Rate : 324k
Sample Encoding: MPEG audio (layer I, II or III)
Comments :
Title=Ancient Corpse Medicine
Artist=Absconder
Album=Cursed Atrocities Demo
Tracknumber=1
Year=2017
Genre=Death Metal



Register


Вернуться к началу страницы
  Insert nick Quick quote
+Цитировать сообщение

ОтветитьСоздать новую тему
1 User(s) are reading this topic (1 Guests and 0 Anonymous Users)
0 Members:

 



- Lo-Fi Version Support form
Copyrights and abuse reports form
Time is now: 19th February 2018 - 03:24:30