Welcome Guest ( Log In | Register )

> Morvigor - Tyrant (2017), Melodic Death/Black Metal
post Nov 14 2017, 13:52:08
Post #1

Serial Uploader
Group Icon
Group: V.I.P
Posts: 32,924
Releases: 31220
From: Lithuania
On Forums: 10 years 2 months
Thanks: 357467 time(s)
Lithuania


(IMG:http://metalarea.org/images/audiocovers/2017_Nov/acov_tid297806_thumb.jpg)

*Artist: Morvigor
*Album: Tyrant
*Year: 2017
*Genre: Melodic Death/Black Metal
*Country: Netherlands (IMG:http://metalarea.org/forum/style_images/flags/Netherlands.png)
*Format: mp3@CBR320kbps
*Size: 109MB

Tracklist:
01. Intro 01:28
02. No Repentance 06:59
03. The Martyr's Ascension 09:08
04. Interlude 02:34
05. Blood of the Pelican 15:41
06. Voices 01:23
07. Tyrant 08:28
08. Outro 01:53
******************************
Total playing time: 47:34





Technical info
(IMG:http://metalarea.org/images/spectrogram/2017_Nov/051b9ba77c8d952aea573899c1e326a0.png)
Input File: 02. No Repentance.mp3
Channels : 2
Sample Rate : 44100
Precision : 16-bit
Duration : 00:07:00.08 = 18525704 samples = 31506.3 CDDA sectors
File Size : 16.9M
Bit Rate : 321k
Sample Encoding: MPEG audio (layer I, II or III)
Comments :
Title=No Repentance
Artist=Morvigor
Album=Tyrant
Tracknumber=2/8
Year=2017



Register


Go to the top of the page
  Insert nick Quick quote
+Quote Post
 
Start new topic
Replies (1 - 3)
post Jan 13 2018, 06:55:11
Post #2

i listen to black metal
**************
Group: Металариец
Posts: 2,176
Releases: 129
From: Москва-Лианозово
On Forums: 11 years 7 months
Thanks: 2008 time(s)
Russian Federation


а ведь хорошо!!!
Go to the top of the page
  Insert nick Quick quote
+Quote Post
post Mar 17 2018, 21:51:21
Post #3

Семь Литров
*******
Group: Металариец
Posts: 710
Releases: 0
On Forums: 9 years 5 months
Thanks: 7 time(s)
Netherlands


Anybody got a working link, please?
Go to the top of the page
  Insert nick Quick quote
+Quote Post
post Mar 18 2018, 15:46:56
Post #4

Going home. Flying high.
**************
Group: Металариец
Posts: 12,228
Releases: 0
From: The Land of Shadows
On Forums: 11 years 11 months
Thanks: 17120 time(s)
Russian Federation


from web
Register


Thanks:
Go to the top of the page
  Insert nick Quick quote
+Quote Post

Reply to this topicStart new topic
1 User(s) are reading this topic (1 Guests and 0 Anonymous Users)
0 Members:

 



- Lo-Fi Version Support form
Copyrights and abuse reports form
Time is now: 14th August 2018 - 09:21:33